<?xml version="1.0" standalone="no"?>
<!DOCTYPE svg PUBLIC "-//W3C//DTD SVG 1.1//EN" "http://www.w3.org/Graphics/SVG/1.1/DTD/svg11.dtd" >
<svg>
<metadata>
Created by FontForge 20110222 at Fri Feb 20 02:05:57 2015
 By deploy user
Copyright (c) 2009 by Reto Moser &#38; Tobias Rechsteiner (Grotesk.cc) and Grilli Type. All rights reserved.
</metadata>
<defs>
<font id="GTHaptik" horiz-adv-x="700" >
  <font-face 
    font-family="GT Haptik"
    font-weight="400"
    font-stretch="normal"
    units-per-em="1000"
    panose-1="2 0 5 5 2 0 0 2 0 4"
    ascent="800"
    descent="-200"
    x-height="500"
    cap-height="700"
    bbox="-220 -300 1308 1192"
    underline-thickness="50"
    underline-position="-50"
    unicode-range="U+0020-FB04"
  />
<missing-glyph horiz-adv-x="885" 
d="M723 448q112 0 112 -79v-240q-52 32 -112 32q-19 0 -58 -10t-60 -10q-48 0 -48 46v86q-23 5 -49 5q-23 0 -70.5 -9t-73.5 -9q-22 0 -35 12.5t-13 33.5v68h-14q-62 0 -176 -44v-330h-39v646q-17 11 -17 33q0 16 10.5 26t26.5 10q15 0 26 -10.5t11 -25.5q0 -23 -18 -34v-24
q103 42 176 42q42 0 73 -21.5t31 -61.5v-25q55 12 102 12q138 0 138 -83v-48q48 12 77 12zM302 402q44 0 75 -14v192q0 28 -22.5 41.5t-52.5 13.5q-65 0 -176 -45v-230q110 42 176 42zM508 305q65 0 110 -25v197q0 11 -2.5 19t-11.5 19.5t-34 17.5t-63 6q-39 0 -101 -12
v-171q0 -18 -32 -29t-32 -23q0 -16 22 -16q23 0 70.5 8.5t73.5 8.5zM808 174v194q0 29 -21.5 40t-63.5 11q-29 0 -77 -12v-167q0 -19 -31 -31.5t-31 -24.5q0 -16 21 -16q19 0 58.5 10.5t60.5 10.5q42 0 84 -15zM499 497q36 0 58.5 -22.5t22.5 -57.5t-22.5 -58t-58.5 -23
q-34 0 -56.5 23t-22.5 58t22.5 57.5t56.5 22.5zM499 365q23 0 38 15t15 37t-15 36.5t-38 14.5q-22 0 -36.5 -14.5t-14.5 -36.5t14.5 -37t36.5 -15zM252 519l45 64h34l-64 -95v-68h-30v68l-65 95h34zM725 376v-100h-29v100h29zM618 241q0 15 -34 26v-47q6 4 15 7.5t14 6.5
t5 7zM344 371v-32q5 3 13.5 5.5t13.5 4.5t5 6q0 11 -32 16zM711 253q19 0 19 -19q0 -20 -19 -20q-20 0 -20 20q0 19 20 19z" />
    <glyph glyph-name="IJ" unicode="IJ" horiz-adv-x="498" 
d="M226 0v90q52 0 82 37.5t30 93.5v479h90v-479q0 -99 -54.5 -160t-147.5 -61zM170 0h-90v700h90v-700z" />
    <glyph glyph-name="ij" unicode="ij" horiz-adv-x="521" 
d="M85 0v500h86v-500h-86zM60 645q0 29 20 48.5t48 19.5t48 -19.5t20 -48.5t-20 -48.5t-48 -19.5t-48 19.5t-20 48.5zM236 -204v84q69 0 94 23.5t25 72.5v524h86v-524q0 -94 -46.5 -137t-158.5 -43zM330 645q0 29 20 48.5t48 19.5t48 -19.5t20 -48.5t-20 -48.5t-48 -19.5
t-48 19.5t-20 48.5z" />
    <glyph glyph-name="napostrophe" unicode="&#x22;n" horiz-adv-x="623" 
d="M465 0v298q0 65 -29.5 99.5t-86.5 34.5q-81 0 -118 -59q-29 -46 -29 -140v-233h-86v500h83v-66q56 78 163 78q96 0 143.5 -58.5t47.5 -159.5v-294h-88zM-18 489l49 86q-23 7 -37 26.5t-14 40.5q0 28 20 49.5t49 21.5q30 0 50.5 -21.5t20.5 -49.5q0 -14 -11 -34l-81 -145z
" />
    <glyph glyph-name="fi" unicode="fi" horiz-adv-x="609" 
d="M413 645q0 29 19.5 48.5t48.5 19.5t48.5 -19.5t19.5 -48.5t-19.5 -48.5t-48.5 -19.5t-48.5 19.5t-19.5 48.5zM193 528v-28h331v-500h-86v425h-245v-425h-86v425h-92v75h92v28q0 181 161 181q32 0 77 -7v-78q-35 5 -66 5q-45 0 -65.5 -22t-20.5 -79z" />
    <glyph glyph-name="fl" unicode="fl" horiz-adv-x="581" 
d="M15 425v75h92v28q0 181 161 181q32 0 77 -7v-78q-35 5 -66 5q-45 0 -65.5 -22t-20.5 -79v-28h145v-75h-145v-425h-86v425h-92zM511 0h-88v700h88v-700z" />
    <glyph glyph-name="ff" unicode="ff" horiz-adv-x="679" 
d="M193 425v-425h-86v425h-92v75h92v28q0 181 161 181q32 0 77 -7v-78q-35 5 -66 5q-45 0 -65.5 -22t-20.5 -79v-28h233v28q0 181 161 181q31 0 77 -7v-78q-35 5 -66 5q-45 0 -65.5 -22t-20.5 -79v-28h145v-75h-145v-425h-86v425h-233z" />
    <glyph glyph-name=".notdef" horiz-adv-x="885" 
d="M723 448q112 0 112 -79v-240q-52 32 -112 32q-19 0 -58 -10t-60 -10q-48 0 -48 46v86q-23 5 -49 5q-23 0 -70.5 -9t-73.5 -9q-22 0 -35 12.5t-13 33.5v68h-14q-62 0 -176 -44v-330h-39v646q-17 11 -17 33q0 16 10.5 26t26.5 10q15 0 26 -10.5t11 -25.5q0 -23 -18 -34v-24
q103 42 176 42q42 0 73 -21.5t31 -61.5v-25q55 12 102 12q138 0 138 -83v-48q48 12 77 12zM302 402q44 0 75 -14v192q0 28 -22.5 41.5t-52.5 13.5q-65 0 -176 -45v-230q110 42 176 42zM508 305q65 0 110 -25v197q0 11 -2.5 19t-11.5 19.5t-34 17.5t-63 6q-39 0 -101 -12
v-171q0 -18 -32 -29t-32 -23q0 -16 22 -16q23 0 70.5 8.5t73.5 8.5zM808 174v194q0 29 -21.5 40t-63.5 11q-29 0 -77 -12v-167q0 -19 -31 -31.5t-31 -24.5q0 -16 21 -16q19 0 58.5 10.5t60.5 10.5q42 0 84 -15zM499 497q36 0 58.5 -22.5t22.5 -57.5t-22.5 -58t-58.5 -23
q-34 0 -56.5 23t-22.5 58t22.5 57.5t56.5 22.5zM499 365q23 0 38 15t15 37t-15 36.5t-38 14.5q-22 0 -36.5 -14.5t-14.5 -36.5t14.5 -37t36.5 -15zM252 519l45 64h34l-64 -95v-68h-30v68l-65 95h34zM725 376v-100h-29v100h29zM618 241q0 15 -34 26v-47q6 4 15 7.5t14 6.5
t5 7zM344 371v-32q5 3 13.5 5.5t13.5 4.5t5 6q0 11 -32 16zM711 253q19 0 19 -19q0 -20 -19 -20q-20 0 -20 20q0 19 20 19z" />
    <glyph glyph-name=".null" horiz-adv-x="0" 
 />
    <glyph glyph-name=".null" horiz-adv-x="0" 
 />
    <glyph glyph-name="nonmarkingreturn" horiz-adv-x="333" 
 />
    <glyph glyph-name="space" unicode=" " horiz-adv-x="290" 
 />
    <glyph glyph-name="exclam" unicode="!" horiz-adv-x="316" 
d="M113 200v500h90v-500h-90zM90 68q0 30 19 49t49 19t49 -19t19 -49t-19 -49t-49 -19t-49 19t-19 49z" />
    <glyph glyph-name="quotedbl" unicode="&#x22;" horiz-adv-x="355" 
d="M70 445v255h73v-255h-73zM212 445v255h73v-255h-73z" />
    <glyph glyph-name="numbersign" unicode="#" horiz-adv-x="569" 
d="M396 213l-29 -213h-68l30 213h-128l-29 -213h-68l30 213h-104l8 65h105l20 144h-105l9 65h105l29 213h69l-30 -213h127l29 213h69l-30 -213h104l-8 -65h-105l-21 -144h105l-9 -65h-105zM357 422h-126l-20 -144h127z" />
    <glyph glyph-name="dollar" unicode="$" horiz-adv-x="579" 
d="M251 -80v82q-62 8 -111 49t-70 116l79 42q25 -95 102 -115v222q-173 55 -173 191q0 75 49.5 125.5t123.5 63.5v84h66v-82q66 -8 118.5 -52.5t73.5 -114.5l-85 -35q-12 47 -41.5 75.5t-65.5 35.5v-215q82 -24 132.5 -73.5t50.5 -126.5q0 -80 -53 -130t-130 -60v-82h-66z
M410 192q0 72 -93 106v-205q41 8 67 34.5t26 64.5zM168 507q0 -64 83 -96v194q-40 -11 -61.5 -38t-21.5 -60z" />
    <glyph glyph-name="percent" unicode="%" horiz-adv-x="823" 
d="M169 0l-50 41l523 659l50 -40zM465 161q0 67 47 114.5t114 47.5t114.5 -47.5t47.5 -114.5t-47.5 -114t-114.5 -47t-114 47t-47 114zM530 161q0 -40 28 -68t68 -28t68 28t28 68t-28 68t-68 28t-68 -28t-28 -68zM358 538q0 -67 -47 -114t-114 -47t-114.5 47t-47.5 114
t47.5 114.5t114.5 47.5t114 -47.5t47 -114.5zM293 538q0 40 -28 68t-68 28t-68 -28t-28 -68t28 -68t68 -28t68 28t28 68z" />
    <glyph glyph-name="ampersand" unicode="&#x26;" horiz-adv-x="691" 
d="M578 310q-13 -84 -40 -151l87 -98l-68 -60l-67 76q-74 -89 -203 -89q-97 0 -154.5 59t-57.5 142q0 70 36.5 116t101.5 89l-24 28q-58 65 -58 138q0 62 44.5 107t117.5 45q72 0 117 -45.5t45 -108.5q0 -58 -29.5 -99.5t-82.5 -79.5l132 -150q10 29 21 97zM287 73
q93 0 146 70l-163 186q-51 -34 -78 -66t-27 -74q0 -44 34 -80t88 -36zM221 556q0 -41 38 -82l28 -33q78 55 78 114q0 32 -21 52t-52 20q-29 0 -50 -20.5t-21 -50.5z" />
    <glyph glyph-name="quotesingle" unicode="'" horiz-adv-x="213" 
d="M70 445v255h73v-255h-73z" />
    <glyph glyph-name="parenleft" unicode="(" horiz-adv-x="322" 
d="M40 313q0 137 49.5 260.5t140.5 216.5l57 -52q-82 -92 -122.5 -193.5t-40.5 -231.5q0 -129 40.5 -231t122.5 -194l-57 -52q-91 93 -140.5 216.5t-49.5 260.5z" />
    <glyph glyph-name="parenright" unicode=")" horiz-adv-x="322" 
d="M282 313q0 -137 -49.5 -260.5t-140.5 -216.5l-57 52q82 92 122.5 194t40.5 231q0 130 -40.5 231.5t-122.5 193.5l57 52q91 -93 140.5 -216.5t49.5 -260.5z" />
    <glyph glyph-name="asterisk" unicode="*" horiz-adv-x="337" 
d="M136 700h64v-121l115 38l22 -62l-117 -37l71 -97l-50 -39l-73 98l-72 -98l-51 39l71 97l-116 37l22 62l114 -38v121z" />
    <glyph glyph-name="plus" unicode="+" 
d="M96 273v90h209v209h90v-209h209v-90h-209v-209h-90v209h-209z" />
    <glyph glyph-name="comma" unicode="," horiz-adv-x="307" 
d="M20 -189l186 339l71 -40l-187 -337z" />
    <glyph glyph-name="hyphen" unicode="-" horiz-adv-x="628" 
d="M80 264v90h468v-90h-468z" />
    <glyph glyph-name="period" unicode="." horiz-adv-x="357" 
d="M100 78q0 33 22.5 56t55.5 23t56 -23t23 -56t-23 -55.5t-56 -22.5t-55.5 22.5t-22.5 55.5z" />
    <glyph glyph-name="slash" unicode="/" horiz-adv-x="733" 
d="M130 0l-70 56l543 644l70 -55z" />
    <glyph glyph-name="zero" unicode="0" horiz-adv-x="778" 
d="M389 695q138 0 233.5 -100t95.5 -248t-95.5 -247.5t-233.5 -99.5t-233.5 99.5t-95.5 247.5t95.5 248t233.5 100zM389 90q101 0 170 74t69 183t-69 183.5t-170 74.5t-170 -74.5t-69 -183.5t69 -183t170 -74zM476 349q0 -35 -25.5 -60.5t-61.5 -25.5t-62 25.5t-26 60.5
q0 37 26 62.5t62 25.5t61.5 -25.5t25.5 -62.5z" />
    <glyph glyph-name="one" unicode="1" horiz-adv-x="458" 
d="M275 700h83v-700h-90v567l-166 -166l-62 64z" />
    <glyph glyph-name="two" unicode="2" horiz-adv-x="615" 
d="M143 482l-73 63q34 68 91 111.5t133 43.5q93 0 157 -62t64 -154q0 -100 -68 -170l-218 -224h286v-90h-421v79l290 298q41 43 41 103q0 57 -37 93.5t-90 36.5q-51 0 -92 -35.5t-63 -92.5z" />
    <glyph glyph-name="three" unicode="3" horiz-adv-x="563" 
d="M393 502q0 48 -32.5 78t-77.5 30q-49 0 -85.5 -36t-49.5 -92l-77 62q21 67 77.5 111.5t131.5 44.5q85 0 144 -56t59 -142q0 -98 -74 -151q74 -52 74 -154q0 -90 -57.5 -143.5t-143.5 -53.5q-78 0 -135 45t-77 117l78 60q11 -60 47 -96t88 -36q47 0 78.5 29.5t31.5 79.5
q0 48 -30 76.5t-74 30.5h-42v90h42q44 2 74 31t30 75z" />
    <glyph glyph-name="four" unicode="4" horiz-adv-x="690" 
d="M506 232h144v-90h-144v-142h-90v142h-386v83l401 475h75v-468zM416 232v310l-260 -310h260z" />
    <glyph glyph-name="five" unicode="5" horiz-adv-x="586" 
d="M110 336v364h396v-90h-306v-152q33 9 73 9q105 0 169 -65t64 -169q0 -110 -70.5 -171.5t-170.5 -61.5q-115 0 -195 70l46 80q70 -60 151 -60q64 0 106 37.5t42 107.5q0 67 -40 104.5t-107 37.5q-76 0 -158 -41z" />
    <glyph glyph-name="six" unicode="6" horiz-adv-x="591" 
d="M305 459q98 0 162 -63t64 -163q0 -102 -65 -167.5t-164 -65.5q-61 0 -109 26t-76 69q-47 71 -47 211q0 191 73 296q68 98 194 98q88 0 154 -54l-49 -74q-51 38 -108 38q-68 0 -111 -52q-49 -60 -49 -140q54 41 131 41zM163 228q0 -64 40.5 -101t99.5 -37q61 0 99.5 39.5
t38.5 102.5q0 62 -37.5 99.5t-99.5 37.5q-63 0 -102 -39t-39 -102z" />
    <glyph glyph-name="seven" unicode="7" horiz-adv-x="543" 
d="M503 700v-86l-317 -614h-101l314 610h-359v90h463z" />
    <glyph glyph-name="eight" unicode="8" horiz-adv-x="556" 
d="M70 196q0 100 79 154q-79 54 -79 154q0 89 58 142.5t150 53.5t150 -53.5t58 -140.5q0 -97 -83 -156q83 -59 83 -156q0 -87 -58 -140.5t-150 -53.5t-150 53.5t-58 142.5zM279 395q48 0 82.5 29.5t34.5 79.5q0 48 -32 77t-85 29t-86 -29t-33 -77q0 -50 35 -79.5t84 -29.5z
M279 305q-49 0 -84 -29.5t-35 -79.5q0 -48 33 -77t86 -29t85 29t32 77q0 50 -34.5 79.5t-82.5 29.5z" />
    <glyph glyph-name="nine" unicode="9" horiz-adv-x="586" 
d="M453 92q-63 -92 -198 -92q-87 0 -162 43l38 82q63 -35 128 -35q72 0 114 51q44 54 44 141q-54 -41 -131 -41q-98 0 -162 63t-64 163q0 102 65 167.5t164 65.5q122 0 185 -95q47 -71 47 -214q0 -199 -68 -299zM428 472q0 64 -40.5 101t-99.5 37q-61 0 -99.5 -39.5
t-38.5 -102.5q0 -62 37.5 -99.5t99.5 -37.5q63 0 102 39t39 102z" />
    <glyph glyph-name="colon" unicode=":" horiz-adv-x="317" 
d="M80 78q0 33 22.5 56t55.5 23t56 -23t23 -56t-23 -55.5t-56 -22.5t-55.5 22.5t-22.5 55.5zM80 434q0 33 22.5 56t55.5 23t56 -23t23 -56t-23 -55.5t-56 -22.5t-55.5 22.5t-22.5 55.5z" />
    <glyph glyph-name="semicolon" unicode=";" horiz-adv-x="398" 
d="M30 -189l186 339l71 -40l-187 -337zM161 434q0 33 22.5 56t55.5 23t56 -23t23 -56t-23 -55.5t-56 -22.5t-55.5 22.5t-22.5 55.5z" />
    <glyph glyph-name="less" unicode="&#x3c;" 
d="M585 126l-37 -79l-434 193v80l434 193l37 -79l-349 -154z" />
    <glyph glyph-name="equal" unicode="=" 
d="M593 443v-90h-486v90h486zM593 228v-90h-486v90h486z" />
    <glyph glyph-name="greater" unicode="&#x3e;" 
d="M151 47l-37 79l349 154l-349 154l37 79l434 -193v-80z" />
    <glyph glyph-name="question" unicode="?" horiz-adv-x="551" 
d="M321 402q60 48 60 103q0 44 -29.5 74.5t-84.5 30.5q-58 0 -93.5 -39t-35.5 -103h-88q0 100 59.5 166t157.5 66q93 0 148.5 -52.5t55.5 -142.5q0 -94 -97 -175q-61 -51 -61 -108v-25h-90v25q0 101 98 180zM200 68q0 30 19 49t49 19t49 -19t19 -49t-19 -49t-49 -19t-49 19
t-19 49z" />
    <glyph glyph-name="at" unicode="@" horiz-adv-x="949" 
d="M575 289l-127 -14q-25 -3 -38.5 -18.5t-13.5 -35.5q0 -24 17.5 -40t51.5 -16q48 0 79 30.5t31 69.5v24zM701 93q-83 0 -106 69q-47 -71 -137 -71q-66 0 -105.5 36.5t-39.5 93.5t37.5 90.5t89.5 37.5l118 9q17 1 17 18v14q0 19 -21.5 36t-56.5 17q-39 0 -68 -18.5
t-35 -54.5l-71 34q29 113 168 113q83 0 123.5 -42t40.5 -115v-131q0 -31 13.5 -47.5t37.5 -16.5q89 0 89 188q0 124 -84.5 201.5t-221.5 77.5q-140 0 -232.5 -93t-92.5 -236q0 -144 89 -238t228 -94q126 0 228 46l16 -78q-115 -48 -244 -48q-174 0 -287.5 117t-113.5 295
q0 177 117 293t292 116q173 0 281.5 -98t108.5 -259q0 -123 -45 -192.5t-133 -69.5z" />
    <glyph glyph-name="A" unicode="A" horiz-adv-x="766" 
d="M756 0h-99l-56 123h-436l-56 -123h-99l326 700h94zM383 591l-175 -378h350z" />
    <glyph glyph-name="B" unicode="B" horiz-adv-x="607" 
d="M80 0v700h293q82 0 138 -54.5t56 -140.5q0 -49 -23 -90.5t-62 -64.5q39 -24 62 -64.5t23 -90.5q0 -86 -56 -140.5t-138 -54.5h-293zM170 305v-215h203q46 0 75 29t29 76t-28 78.5t-71 31.5h-208zM170 610v-215h208q43 0 71 31.5t28 78.5t-29 76t-75 29h-203z" />
    <glyph glyph-name="C" unicode="C" horiz-adv-x="659" 
d="M644 600l-41 -85q-88 95 -209 95q-109 0 -181.5 -72.5t-72.5 -187.5t72.5 -187.5t181.5 -72.5q61 0 129 31l16 -92q-81 -29 -145 -29q-143 0 -243.5 101t-100.5 249q0 149 100.5 249.5t247.5 100.5q139 0 246 -100z" />
    <glyph glyph-name="D" unicode="D" horiz-adv-x="719" 
d="M80 0v700h240q149 0 249 -99.5t100 -250.5t-100 -250.5t-249 -99.5h-240zM320 610h-150v-520h150q113 0 186 73t73 187t-73 187t-186 73z" />
    <glyph glyph-name="E" unicode="E" horiz-adv-x="565" 
d="M80 0v700h430v-90h-340v-215h340v-90h-340v-215h340v-90h-430z" />
    <glyph glyph-name="F" unicode="F" horiz-adv-x="550" 
d="M510 610h-340v-215h340v-90h-340v-305h-90v700h430v-90z" />
    <glyph glyph-name="G" unicode="G" horiz-adv-x="659" 
d="M394 610q-109 0 -181.5 -72.5t-72.5 -187.5t72 -187.5t183 -72.5q29 0 63 8v181h-161v90h251v-337q-81 -32 -155 -32q-143 0 -243 101t-100 250q0 148 100.5 248.5t247.5 100.5q139 0 246 -100l-41 -85q-88 95 -209 95z" />
    <glyph glyph-name="H" unicode="H" horiz-adv-x="740" 
d="M660 0h-90v305h-400v-305h-90v700h90v-305h400v305h90v-700z" />
    <glyph glyph-name="I" unicode="I" horiz-adv-x="250" 
d="M170 0h-90v700h90v-700z" />
    <glyph glyph-name="J" unicode="J" horiz-adv-x="492" 
d="M15 204l83 41q0 -69 30.5 -112t91.5 -43q52 0 82 37.5t30 93.5v479h90v-479q0 -99 -54.5 -160t-147.5 -61q-52 0 -93 19t-64.5 49.5t-35.5 65t-12 70.5z" />
    <glyph glyph-name="K" unicode="K" horiz-adv-x="647" 
d="M528 0l-252 330l-106 -107v-223h-90v700h90v-349l345 349h127l-302 -305l302 -395h-114z" />
    <glyph glyph-name="L" unicode="L" horiz-adv-x="532" 
d="M80 0v700h90v-610h347v-90h-437z" />
    <glyph glyph-name="M" unicode="M" horiz-adv-x="1011" 
d="M545 0h-79l-296 520v-520h-90v700h93l333 -584l332 584h93v-700h-90v520z" />
    <glyph glyph-name="N" unicode="N" horiz-adv-x="787" 
d="M707 0h-86l-451 547v-547h-90v700h83l454 -551v551h90v-700z" />
    <glyph glyph-name="O" unicode="O" horiz-adv-x="798" 
d="M399 700q150 0 249.5 -100t99.5 -250t-99.5 -250t-249.5 -100q-149 0 -249 100t-100 250t100 250t249 100zM399 90q112 0 185.5 74t73.5 186t-73.5 186t-185.5 74t-185.5 -74t-73.5 -186t73.5 -186t185.5 -74z" />
    <glyph glyph-name="P" unicode="P" horiz-adv-x="595" 
d="M329 228h-159v-228h-90v700h249q102 0 169 -67t67 -169t-67 -169t-169 -67zM170 318h159q61 0 103.5 41.5t42.5 104.5t-42.5 104.5t-103.5 41.5h-159v-292z" />
    <glyph glyph-name="Q" unicode="Q" horiz-adv-x="835" 
d="M792 -110l-179 179q-90 -69 -214 -69q-149 0 -249 100t-100 250t100 250t249 100q150 0 250 -100t100 -250q0 -128 -73 -219l179 -178zM399 90q83 0 149 44l-196 196l63 63l196 -196q48 67 48 153q0 112 -74 186t-186 74t-185.5 -74t-73.5 -186t73.5 -186t185.5 -74z" />
    <glyph glyph-name="R" unicode="R" horiz-adv-x="673" 
d="M170 228v-228h-90v700h269q102 0 169 -67t67 -169q0 -70 -33.5 -125.5t-90.5 -84.5l207 -254h-117l-186 228h-195zM254 368l69 58l78 -99q42 16 68 53t26 84q0 63 -42.5 104.5t-103.5 41.5h-179v-292h124z" />
    <glyph glyph-name="S" unicode="S" horiz-adv-x="554" 
d="M504 531l-85 -35q-16 57 -52.5 85.5t-83.5 28.5q-52 0 -86 -30.5t-34 -74.5q0 -21 9.5 -38t21 -27.5t33 -20t35 -14t38.5 -11.5q89 -26 142 -72t53 -128q0 -91 -63.5 -142.5t-150.5 -51.5q-73 0 -132.5 40.5t-83.5 126.5l79 42q33 -119 138 -119q52 0 87.5 28.5
t35.5 75.5q0 34 -22.5 59t-45.5 35t-56 19q-33 10 -52.5 16.5t-53 23.5t-53 36t-34.5 51t-15 71q0 87 63 141t149 54q77 0 136.5 -46t82.5 -123z" />
    <glyph glyph-name="T" unicode="T" horiz-adv-x="651" 
d="M646 700v-90h-276v-610h-90v610h-275v90h641z" />
    <glyph glyph-name="U" unicode="U" horiz-adv-x="780" 
d="M70 320v380h90v-380q0 -98 66 -164t164 -66t164 66t66 164v380h90v-380q0 -136 -92 -228t-228 -92t-228 92t-92 228z" />
    <glyph glyph-name="V" unicode="V" horiz-adv-x="744" 
d="M406 0h-68l-333 700h100l268 -564l266 564h100z" />
    <glyph glyph-name="W" unicode="W" horiz-adv-x="1220" 
d="M567 700h86l243 -546l217 546h97l-278 -700h-66l-256 574l-256 -574h-66l-278 700h97l217 -546z" />
    <glyph glyph-name="X" unicode="X" horiz-adv-x="712" 
d="M697 700l-283 -351l283 -349h-116l-225 277l-225 -277h-116l283 349l-283 351h115l226 -279l226 279h115z" />
    <glyph glyph-name="Y" unicode="Y" horiz-adv-x="662" 
d="M331 388l216 312h110l-281 -405v-295h-90v295l-281 405h110z" />
    <glyph glyph-name="Z" unicode="Z" horiz-adv-x="662" 
d="M612 631l-428 -541h428v-90h-562v69l428 541h-428v90h562v-69z" />
    <glyph glyph-name="bracketleft" unicode="[" horiz-adv-x="340" 
d="M110 -134v895h200v-70h-125v-755h125v-70h-200z" />
    <glyph glyph-name="backslash" unicode="\" horiz-adv-x="673" 
d="M643 56l-70 -56l-543 645l70 55z" />
    <glyph glyph-name="bracketright" unicode="]" horiz-adv-x="340" 
d="M230 761v-895h-200v70h125v755h-125v70h200z" />
    <glyph glyph-name="asciicircum" unicode="^" horiz-adv-x="341" 
d="M10 626l161 152l160 -152l-53 -54l-107 104l-108 -104z" />
    <glyph glyph-name="underscore" unicode="_" horiz-adv-x="598" 
d="M30 -59v69h538v-69h-538z" />
    <glyph glyph-name="grave" unicode="`" horiz-adv-x="272" 
d="M50 778l212 -137l-39 -60l-213 133z" />
    <glyph glyph-name="a" unicode="a" horiz-adv-x="530" 
d="M379 350v11q0 33 -29.5 53.5t-79.5 20.5q-113 0 -129 -91l-78 42q32 126 199 126q102 0 152.5 -49t50.5 -138v-325h-86v71q-24 -37 -67 -59t-94 -22q-81 0 -127 43t-46 110q0 69 43 109.5t109 46.5l145 14q17 1 27 11.5t10 25.5zM379 239l-167 -20q-79 -10 -79 -76
q0 -33 24.5 -52.5t73.5 -19.5q60 0 104 41t44 90v37z" />
    <glyph glyph-name="b" unicode="b" horiz-adv-x="603" 
d="M330 512q106 0 174.5 -72t68.5 -190t-68 -190t-173 -72q-113 0 -176 84v-72h-86v700h86v-268q65 80 174 80zM314 68q77 0 123.5 51t46.5 131t-46.5 131t-123.5 51q-76 0 -120 -49.5t-44 -132.5t44 -132.5t120 -49.5z" />
    <glyph glyph-name="c" unicode="c" horiz-adv-x="494" 
d="M30 250q0 112 74 187t185 75q107 0 176 -74l-54 -68q-49 59 -124 59q-71 0 -119.5 -50t-48.5 -129q0 -80 48.5 -129.5t119.5 -49.5q75 0 129 62l53 -69q-73 -76 -181 -76q-110 0 -184 75t-74 187z" />
    <glyph glyph-name="d" unicode="d" horiz-adv-x="603" 
d="M275 512q116 0 172 -80v268h86v-700h-86v72q-26 -39 -71.5 -61.5t-103.5 -22.5q-105 0 -173.5 72t-68.5 190q0 119 68.5 190.5t176.5 71.5zM289 68q76 0 120 49.5t44 132.5t-44 132.5t-120 49.5q-77 0 -123.5 -51t-46.5 -131t46.5 -131t123.5 -51z" />
    <glyph glyph-name="e" unicode="e" horiz-adv-x="542" 
d="M440 145l44 -66q-81 -91 -199 -91q-113 0 -184 72t-71 186q0 112 67.5 189t178.5 77q108 0 174.5 -74.5t66.5 -187.5v-26h-401q4 -74 50.5 -115t114.5 -41q93 0 159 77zM122 293h301q-8 63 -46 101t-98 38q-62 0 -104 -38t-53 -101z" />
    <glyph glyph-name="f" unicode="f" horiz-adv-x="360" 
d="M15 425v75h92v28q0 181 161 181q32 0 77 -7v-78q-35 5 -66 5q-45 0 -65.5 -22t-20.5 -79v-28h145v-75h-145v-425h-86v425h-92z" />
    <glyph glyph-name="g" unicode="g" horiz-adv-x="613" 
d="M460 27v41q-25 -36 -71 -58t-104 -22q-108 0 -176.5 71.5t-68.5 190.5q0 118 68.5 190t175.5 72q59 0 104.5 -22.5t68.5 -57.5v68h86v-473q0 -240 -241 -240q-163 0 -227 123l67 53q50 -100 167 -100q151 0 151 164zM299 432q-77 0 -123.5 -51t-46.5 -131t46.5 -131
t123.5 -51q76 0 120 49.5t44 132.5t-44 132.5t-120 49.5z" />
    <glyph glyph-name="h" unicode="h" horiz-adv-x="567" 
d="M419 0v298q0 65 -29.5 99.5t-87.5 34.5q-79 0 -117 -59q-29 -46 -29 -140v-233h-86v700h86v-266q56 78 156 78q99 0 147 -58t48 -160v-294h-88z" />
    <glyph glyph-name="i" unicode="i" horiz-adv-x="256" 
d="M85 0v500h86v-500h-86zM60 645q0 29 20 48.5t48 19.5t48 -19.5t20 -48.5t-20 -48.5t-48 -19.5t-48 19.5t-20 48.5z" />
    <glyph glyph-name="j" unicode="j" horiz-adv-x="265" 
d="M-20 -204v84q69 0 94 23.5t25 72.5v524h86v-524q0 -94 -46.5 -137t-158.5 -43zM74 645q0 29 20 48.5t48 19.5t48 -19.5t20 -48.5t-20 -48.5t-48 -19.5t-48 19.5t-20 48.5z" />
    <glyph glyph-name="k" unicode="k" horiz-adv-x="515" 
d="M393 0l-161 222l-76 -72v-150h-86v700h86v-435l228 235h121l-212 -221l212 -279h-112z" />
    <glyph glyph-name="l" unicode="l" horiz-adv-x="228" 
d="M158 0h-88v700h88v-700z" />
    <glyph glyph-name="m" unicode="m" horiz-adv-x="926" 
d="M769 0v299q0 133 -120 133q-77 0 -114 -59q-29 -46 -29 -140v-233h-87v299q0 133 -119 133q-78 0 -115 -59q-29 -46 -29 -140v-233h-86v500h83v-70q23 39 64.5 60.5t91.5 21.5q122 0 167 -99q65 99 183 99q197 0 197 -224v-288h-87z" />
    <glyph glyph-name="n" unicode="n" horiz-adv-x="577" 
d="M419 0v298q0 65 -29.5 99.5t-86.5 34.5q-81 0 -118 -59q-29 -46 -29 -140v-233h-86v500h83v-66q56 78 163 78q96 0 143.5 -58.5t47.5 -159.5v-294h-88z" />
    <glyph glyph-name="o" unicode="o" horiz-adv-x="584" 
d="M292 512q109 0 185.5 -76.5t76.5 -185.5t-76.5 -185.5t-185.5 -76.5t-185.5 76.5t-76.5 185.5t76.5 185.5t185.5 76.5zM292 71q74 0 123.5 51.5t49.5 127.5t-49.5 127.5t-123.5 51.5t-123.5 -51.5t-49.5 -127.5t49.5 -127.5t123.5 -51.5z" />
    <glyph glyph-name="p" unicode="p" horiz-adv-x="603" 
d="M156 -200h-86v700h86v-68q65 80 174 80q106 0 174.5 -72t68.5 -190t-68 -190t-173 -72q-113 0 -176 84v-272zM314 432q-76 0 -120 -49.5t-44 -132.5t44 -132.5t120 -49.5q77 0 123.5 51t46.5 131t-46.5 131t-123.5 51z" />
    <glyph glyph-name="q" unicode="q" horiz-adv-x="603" 
d="M533 -200h-86v272q-24 -37 -69 -60.5t-106 -23.5q-105 0 -173.5 72t-68.5 190q0 119 68.5 190.5t176.5 71.5q116 0 172 -80v68h86v-700zM289 432q-77 0 -123.5 -51t-46.5 -131t46.5 -131t123.5 -51q76 0 120 49.5t44 132.5t-44 132.5t-120 49.5z" />
    <glyph glyph-name="r" unicode="r" horiz-adv-x="374" 
d="M354 508l-1 -90q-21 5 -50 5q-79 0 -115 -51q-32 -46 -32 -139v-233h-86v500h83v-75q49 88 151 88z" />
    <glyph glyph-name="s" unicode="s" horiz-adv-x="467" 
d="M35 105l71 45q36 -82 131 -82q47 0 78 19.5t31 51.5q0 17 -9 29.5t-28.5 21t-34.5 12.5t-43 10q-31 7 -52 12.5t-49 17.5t-45 26.5t-29 38t-12 52.5q0 66 53 109.5t141 43.5q136 0 194 -108l-71 -45q-37 73 -127 73q-47 0 -75.5 -20.5t-28.5 -50.5q0 -29 27 -42t88 -27
q92 -21 139 -53t47 -96q0 -71 -55 -113t-140 -42q-68 0 -121 29t-80 88z" />
    <glyph glyph-name="t" unicode="t" horiz-adv-x="377" 
d="M114 140v285h-99v75h99v142h86v-142h137v-75h-137v-290q0 -61 57 -61q31 0 85 6v-75q-48 -10 -90 -10q-70 0 -104 33.5t-34 111.5z" />
    <glyph glyph-name="u" unicode="u" horiz-adv-x="570" 
d="M158 500v-296q0 -65 24.5 -100.5t85.5 -35.5q81 0 117 59q29 46 29 140v233h86v-500h-83v72q-59 -84 -164 -84q-183 0 -183 216v296h88z" />
    <glyph glyph-name="v" unicode="v" horiz-adv-x="528" 
d="M424 500h94l-220 -500h-68l-220 500h94l160 -387z" />
    <glyph glyph-name="w" unicode="w" horiz-adv-x="866" 
d="M402 500h61l154 -371l146 371h93l-206 -500h-66l-151 359l-152 -359h-66l-205 500h93l145 -371z" />
    <glyph glyph-name="x" unicode="x" horiz-adv-x="520" 
d="M312 250l198 -250h-106l-144 186l-144 -186h-106l198 250l-198 250h106l144 -186l144 186h106z" />
    <glyph glyph-name="y" unicode="y" horiz-adv-x="525" 
d="M10 500h104l159 -332l156 332h91l-323 -700h-93l123 268z" />
    <glyph glyph-name="z" unicode="z" horiz-adv-x="454" 
d="M414 423l-278 -343h288v-80h-394v77l278 343h-270v80h376v-77z" />
    <glyph glyph-name="braceleft" unicode="{" horiz-adv-x="378" 
d="M243 197v-180q0 -39 23.5 -60t59.5 -21h32v-70h-27q-163 0 -163 156v165q0 41 -29 64.5t-79 26.5v74q50 3 79 27.5t29 65.5v160q0 156 163 156h27v-70h-32q-36 0 -59.5 -21t-23.5 -60v-167q0 -92 -80 -123v-2q43 -17 61.5 -46t18.5 -75z" />
    <glyph glyph-name="bar" unicode="|" horiz-adv-x="275" 
d="M100 -134v895h75v-895h-75z" />
    <glyph glyph-name="braceright" unicode="}" horiz-adv-x="378" 
d="M135 17v180q0 46 18.5 75t61.5 46v2q-80 31 -80 123v167q0 39 -23.5 60t-59.5 21h-32v70h27q163 0 163 -156v-160q0 -41 29 -65.5t79 -27.5v-74q-50 -3 -79 -26.5t-29 -64.5v-165q0 -156 -163 -156h-27v70h32q36 0 59.5 21t23.5 60z" />
    <glyph glyph-name="asciitilde" unicode="~" horiz-adv-x="683" 
d="M451 230q-47 0 -116.5 34.5t-102.5 34.5q-50 0 -110 -58l-47 66q83 81 157 81q47 0 116.5 -34.5t102.5 -34.5q50 0 110 58l47 -62q-87 -85 -157 -85z" />
    <glyph glyph-name="exclamdown" unicode="&#xa1;" horiz-adv-x="316" 
d="M203 311v-511h-90v511h90zM226 445q0 -30 -19 -49t-49 -19t-49 19t-19 49t19 49t49 19t49 -19t19 -49z" />
    <glyph glyph-name="cent" unicode="&#xa2;" horiz-adv-x="519" 
d="M50 250q0 99 59 170t152 88v91h65v-88q95 -6 159 -73l-54 -68q-43 51 -105 58v-356q64 7 110 61l53 -69q-66 -69 -163 -75v-86h-65v89q-93 16 -152 87.5t-59 170.5zM139 250q0 -66 34 -112t88 -61v346q-55 -15 -88.5 -61.5t-33.5 -111.5z" />
    <glyph glyph-name="sterling" unicode="&#xa3;" horiz-adv-x="623" 
d="M547 171l46 -80q-68 -91 -197 -91h-326v82q88 9 88 103v135h-98v75h98v118q0 89 49 144.5t143 55.5q65 0 110.5 -32.5t66.5 -79.5l-76 -54q-12 36 -39.5 58.5t-61.5 22.5q-48 0 -75 -29.5t-27 -85.5v-118h195v-75h-195v-135q0 -73 -47 -97v-3h195q99 0 151 86z" />
    <glyph glyph-name="currency" unicode="&#xa4;" horiz-adv-x="544" 
d="M62 350q0 70 41 125l-76 75l47 44l74 -75q55 41 124 41t124 -41l74 75l46 -44l-76 -75q42 -57 42 -125q0 -69 -41 -123l83 -84l-44 -44l-84 82q-56 -40 -124 -40t-124 40l-84 -82l-44 44l83 83q-41 55 -41 124zM147 350q0 -51 37 -87.5t88 -36.5t88 36.5t37 87.5
q0 52 -37 88.5t-88 36.5t-88 -36.5t-37 -88.5z" />
    <glyph glyph-name="yen" unicode="&#xa5;" horiz-adv-x="672" 
d="M569 226v-70h-188v-156h-90v156h-188v70h188v69h-188v70h141l-224 335h110l206 -315l206 315h110l-224 -335h141v-70h-188v-69h188z" />
    <glyph glyph-name="brokenbar" unicode="&#xa6;" horiz-adv-x="275" 
d="M100 383v378h75v-378h-75zM100 294h75v-428h-75v428z" />
    <glyph glyph-name="section" unicode="&#xa7;" horiz-adv-x="516" 
d="M50 279q0 48 25.5 87t68.5 61q-55 43 -55 117q0 73 49 120.5t130 47.5q126 0 179 -108l-71 -45q-32 73 -112 73q-40 0 -64.5 -25.5t-24.5 -60.5q0 -34 30 -57t72.5 -39t85.5 -35.5t73 -57.5t30 -94q0 -48 -25.5 -87.5t-68.5 -60.5q55 -46 55 -117q0 -73 -49 -120.5
t-130 -47.5q-126 0 -179 108l71 45q32 -73 112 -73q40 0 64.5 25.5t24.5 60.5q0 34 -30 57t-72.5 39t-85.5 35.5t-73 57.5t-30 94zM135 283q0 -20 7.5 -35.5t28 -29t33 -20.5t47 -20.5t45.5 -18.5q37 15 61 40.5t24 59.5q0 20 -7.5 35.5t-28 29t-33 20.5t-47 20.5
t-45.5 18.5q-85 -35 -85 -100z" />
    <glyph glyph-name="dieresis" unicode="&#xa8;" horiz-adv-x="388" 
d="M10 645q0 29 20 48.5t48 19.5t48 -19.5t20 -48.5t-20 -48.5t-48 -19.5t-48 19.5t-20 48.5zM242 645q0 29 20 48.5t48 19.5t48 -19.5t20 -48.5t-20 -48.5t-48 -19.5t-48 19.5t-20 48.5z" />
    <glyph glyph-name="copyright" unicode="&#xa9;" horiz-adv-x="882" 
d="M595 494l-29 -63q-48 58 -114 58q-57 0 -93.5 -35.5t-36.5 -93.5t36.5 -94.5t93.5 -36.5q33 0 74 22l11 -71q-42 -18 -85 -18q-85 0 -141.5 56.5t-56.5 141.5q0 84 56.5 140.5t141.5 56.5q80 0 143 -63zM441 57q126 0 208.5 83.5t82.5 209.5t-82.5 209.5t-208.5 83.5
t-208.5 -83.5t-82.5 -209.5t82.5 -209.5t208.5 -83.5zM441 -13q-155 0 -258 104t-103 259t103 259t258 104t258 -104t103 -259t-103 -259t-258 -104z" />
    <glyph glyph-name="ordfeminine" unicode="&#xaa;" horiz-adv-x="462" 
d="M317 597v12q0 22 -22.5 36t-59.5 14q-83 0 -99 -66l-70 37q31 99 164 99q165 0 165 -147v-252h-78v48q-44 -56 -122 -56q-65 0 -103 34.5t-38 88.5t35 84.5t88 35.5l116 10q24 2 24 22zM317 509l-126 -14q-57 -7 -57 -50q0 -22 18.5 -35.5t53.5 -13.5q45 0 78 28.5
t33 64.5v20z" />
    <glyph glyph-name="guillemotleft" unicode="&#xab;" horiz-adv-x="563" 
d="M282 91l-57 -51l-185 210l185 210l57 -52l-143 -158zM483 91l-57 -51l-185 210l185 210l57 -52l-142 -158z" />
    <glyph glyph-name="logicalnot" unicode="&#xac;" 
d="M121 304v90h458v-254h-91v164h-367z" />
    <glyph glyph-name="softhyphen" unicode="&#xad;" horiz-adv-x="528" 
d="M80 264v90h368v-90h-368z" />
    <glyph glyph-name="registered" unicode="&#xae;" horiz-adv-x="882" 
d="M369 287v-119h-62v379h148q56 0 93.5 -37t37.5 -94q0 -77 -61 -111l111 -137h-79l-96 119h-92zM395 367l48 39l42 -53q39 16 39 63q0 30 -19.5 50t-49.5 20h-86v-140h42zM441 57q126 0 208.5 83.5t82.5 209.5t-82.5 209.5t-208.5 83.5t-208.5 -83.5t-82.5 -209.5
t82.5 -209.5t208.5 -83.5zM441 -13q-155 0 -258 104t-103 259t103 259t258 104t258 -104t103 -259t-103 -259t-258 -104z" />
    <glyph glyph-name="macron" unicode="&#xaf;" horiz-adv-x="320" 
d="M10 612v75h300v-75h-300z" />
    <glyph glyph-name="degree" unicode="&#xb0;" 
d="M480 590q0 -56 -37 -93t-93 -37t-93 37t-37 93t37 93t93 37t93 -37t37 -93zM422 590q0 34 -20 55.5t-52 21.5t-52 -21.5t-20 -55.5t20 -55.5t52 -21.5t52 21.5t20 55.5z" />
    <glyph glyph-name="plusminus" unicode="&#xb1;" 
d="M113 115v88h473v-88h-473zM113 383v88h194v139h86v-139h193v-88h-193v-139h-86v139h-194z" />
    <glyph glyph-name="twosuperior" unicode="&#xb2;" horiz-adv-x="416" 
d="M114 653l-56 48q21 39 58.5 64t87.5 25q59 0 97 -35.5t38 -91.5q0 -55 -44 -102l-114 -120h153v-71h-265v59l175 182q22 24 22 50q0 27 -17.5 42.5t-44.5 15.5q-29 0 -52.5 -18t-37.5 -48z" />
    <glyph glyph-name="threesuperior" unicode="&#xb3;" horiz-adv-x="391" 
d="M253 667q0 24 -16 38t-40 14q-56 0 -78 -64l-58 48q15 37 50.5 62t83.5 25q57 0 94 -34t37 -85q0 -50 -41 -89q41 -33 41 -91q0 -55 -35.5 -88t-93.5 -33q-50 0 -86 25t-53 67l64 48q21 -69 74 -69q25 0 41 14t16 38q0 25 -17 39t-45 14h-24v71h24q28 0 45 13t17 37z" />
    <glyph glyph-name="acute" unicode="&#xb4;" horiz-adv-x="272" 
d="M10 641l212 137l40 -64l-213 -133z" />
    <glyph glyph-name="uni00B5" unicode="&#xb5;" 
d="M223 500v-296q0 -65 24.5 -100.5t85.5 -35.5q81 0 117 59q29 46 29 140v233h86v-500h-83v72q-58 -84 -164 -84q-59 0 -98 22v-210h-85v700h88z" />
    <glyph glyph-name="paragraph" unicode="&#xb6;" horiz-adv-x="586" 
d="M486 700v-834h-78v759h-104v-759h-78v462q-79 0 -132.5 53.5t-53.5 132.5t53.5 132.5t132.5 53.5h260z" />
    <glyph glyph-name="periodcentered" unicode="&#xb7;" horiz-adv-x="342" 
d="M100 316q0 33 22.5 56t55.5 23t56 -23t23 -56t-23 -55.5t-56 -22.5t-55.5 22.5t-22.5 55.5z" />
    <glyph glyph-name="cedilla" unicode="&#xb8;" horiz-adv-x="158" 
d="M24 30h68q56 -59 56 -111q0 -41 -25 -63.5t-62 -22.5q-27 0 -51 10v58q24 -7 38 -7q32 0 32 34q0 43 -56 102z" />
    <glyph glyph-name="onesuperior" unicode="&#xb9;" horiz-adv-x="328" 
d="M186 790h65v-420h-72v313l-88 -84l-51 51z" />
    <glyph glyph-name="ordmasculine" unicode="&#xba;" horiz-adv-x="496" 
d="M248 729q87 0 148 -59.5t61 -144.5t-61 -144.5t-148 -59.5t-148 59.5t-61 144.5t61 144.5t148 59.5zM248 399q54 0 89.5 36.5t35.5 89.5t-35.5 89.5t-89.5 36.5q-53 0 -88.5 -36.5t-35.5 -89.5t35.5 -89.5t88.5 -36.5z" />
    <glyph glyph-name="guillemotright" unicode="&#xbb;" horiz-adv-x="564" 
d="M339 40l-57 51l143 159l-143 158l57 52l185 -210zM137 40l-57 51l143 159l-143 158l57 52l185 -210z" />
    <glyph glyph-name="onequarter" unicode="&#xbc;" horiz-adv-x="900" 
d="M194 0l-50 41l523 659l50 -40zM202 700h65v-420h-72v313l-88 -84l-51 51zM758 152h86v-71h-86v-81h-72v81h-230v61l243 278h59v-268zM686 152v142l-126 -142h126z" />
    <glyph glyph-name="onehalf" unicode="&#xbd;" horiz-adv-x="900" 
d="M604 283l-56 48q21 39 58.5 64t87.5 25q59 0 97 -35.5t38 -91.5q0 -55 -44 -102l-114 -120h153v-71h-265v59l175 182q22 24 22 51q0 26 -18 41.5t-43 15.5q-61 0 -91 -66zM208 0l-50 41l523 659l50 -40zM216 700h65v-420h-72v313l-88 -84l-51 51z" />
    <glyph glyph-name="threequarters" unicode="&#xbe;" horiz-adv-x="900" 
d="M214 0l-50 41l523 659l50 -40zM768 152h86v-71h-86v-81h-72v81h-230v61l243 278h59v-268zM696 152v142l-126 -142h126zM241 577q0 24 -15.5 38t-39.5 14q-57 0 -79 -64l-58 48q15 37 50.5 62t83.5 25q57 0 94 -34t37 -85q0 -50 -41 -89q41 -33 41 -91q0 -55 -35.5 -88
t-92.5 -33q-50 0 -86.5 25t-53.5 67l64 48q21 -69 74 -69q25 0 41 14t16 38q0 25 -17 39t-45 14h-24v71h24q28 0 45 13t17 37z" />
    <glyph glyph-name="questiondown" unicode="&#xbf;" horiz-adv-x="491" 
d="M190 90q-60 -48 -60 -103q0 -44 29.5 -74.5t84.5 -30.5q58 0 93.5 39t35.5 103h88q0 -100 -59.5 -166t-157.5 -66q-93 0 -148.5 52.5t-55.5 142.5q0 94 97 175q61 51 61 108v41h90v-41q0 -101 -98 -180zM311 445q0 -30 -19 -49t-49 -19t-49 19t-19 49t19 49t49 19t49 -19
t19 -49z" />
    <glyph glyph-name="Agrave" unicode="&#xc0;" horiz-adv-x="766" 
d="M756 0h-99l-56 123h-436l-56 -123h-99l326 700h94zM383 591l-175 -378h350zM300 958l212 -137l-39 -60l-213 133z" />
    <glyph glyph-name="Aacute" unicode="&#xc1;" horiz-adv-x="766" 
d="M756 0h-99l-56 123h-436l-56 -123h-99l326 700h94zM383 591l-175 -378h350zM263 821l212 137l40 -64l-213 -133z" />
    <glyph glyph-name="Acircumflex" unicode="&#xc2;" horiz-adv-x="766" 
d="M756 0h-99l-56 123h-436l-56 -123h-99l326 700h94zM383 591l-175 -378h350zM383 867l-129 -112l-47 52l176 151l176 -151l-47 -52z" />
    <glyph glyph-name="Atilde" unicode="&#xc3;" horiz-adv-x="766" 
d="M756 0h-99l-56 123h-436l-56 -123h-99l326 700h94zM383 591l-175 -378h350zM443 847q19 0 56 39l48 -46q-58 -69 -106 -69q-27 0 -65.5 23.5t-50.5 23.5q-19 0 -56 -39l-48 46q58 69 106 69q27 0 65.5 -23.5t50.5 -23.5z" />
    <glyph glyph-name="Adieresis" unicode="&#xc4;" horiz-adv-x="766" 
d="M137 738q0 28 19.5 48t48.5 20t48.5 -20t19.5 -48t-19.5 -48t-48.5 -20t-48.5 20t-19.5 48zM493 738q0 28 19.5 48t48.5 20t48.5 -20t19.5 -48t-19.5 -48t-48.5 -20t-48.5 20t-19.5 48zM756 0h-99l-56 123h-436l-56 -123h-99l326 700h94zM383 591l-175 -378h350z" />
    <glyph glyph-name="Aring" unicode="&#xc5;" horiz-adv-x="766" 
d="M756 0h-99l-56 123h-436l-56 -123h-99l326 700h94zM383 591l-175 -378h350zM383 808q24 0 38.5 15.5t14.5 39.5t-14.5 39.5t-38.5 15.5t-38.5 -15.5t-14.5 -39.5t14.5 -39.5t38.5 -15.5zM383 753q-48 0 -79 31t-31 79t31 79.5t79 31.5t79 -31.5t31 -79.5t-31 -79t-79 -31
z" />
    <glyph glyph-name="AE" unicode="&#xc6;" horiz-adv-x="993" 
d="M938 0h-431v123h-299l-87 -123h-116l507 700h426v-90h-340v-215h340v-90h-340v-215h340v-90zM508 537l-234 -324h234v324z" />
    <glyph glyph-name="Ccedilla" unicode="&#xc7;" horiz-adv-x="659" 
d="M644 600l-41 -85q-88 95 -209 95q-109 0 -181.5 -72.5t-72.5 -187.5t72.5 -187.5t181.5 -72.5q61 0 129 31l16 -92q-59 -21 -98 -26q33 -41 33 -84q0 -41 -25 -63.5t-62 -22.5q-27 0 -51 10v58q24 -7 38 -7q32 0 32 34q0 32 -31 72q-137 8 -231 107.5t-94 242.5
q0 149 100.5 249.5t247.5 100.5q139 0 246 -100z" />
    <glyph glyph-name="Egrave" unicode="&#xc8;" horiz-adv-x="565" 
d="M80 0v700h430v-90h-340v-215h340v-90h-340v-215h340v-90h-430zM224 958l212 -137l-39 -60l-213 133z" />
    <glyph glyph-name="Eacute" unicode="&#xc9;" horiz-adv-x="565" 
d="M80 0v700h430v-90h-340v-215h340v-90h-340v-215h340v-90h-430zM187 821l212 137l40 -64l-213 -133z" />
    <glyph glyph-name="Ecircumflex" unicode="&#xca;" horiz-adv-x="565" 
d="M80 0v700h430v-90h-340v-215h340v-90h-340v-215h340v-90h-430zM307 867l-129 -112l-47 52l176 151l176 -151l-47 -52z" />
    <glyph glyph-name="Edieresis" unicode="&#xcb;" horiz-adv-x="565" 
d="M80 0v700h430v-90h-340v-215h340v-90h-340v-215h340v-90h-430zM123 825q0 29 19.5 48.5t48.5 19.5t48.5 -19.5t19.5 -48.5t-19.5 -48.5t-48.5 -19.5t-48.5 19.5t-19.5 48.5zM355 825q0 29 19.5 48.5t48.5 19.5t48.5 -19.5t19.5 -48.5t-19.5 -48.5t-48.5 -19.5t-48.5 19.5
t-19.5 48.5z" />
    <glyph glyph-name="Igrave" unicode="&#xcc;" horiz-adv-x="250" 
d="M170 0h-90v700h90v-700zM42 958l212 -137l-39 -60l-213 133z" />
    <glyph glyph-name="Iacute" unicode="&#xcd;" horiz-adv-x="250" 
d="M170 0h-90v700h90v-700zM5 821l212 137l40 -64l-213 -133z" />
    <glyph glyph-name="Icircumflex" unicode="&#xce;" horiz-adv-x="250" 
d="M170 0h-90v700h90v-700zM125 867l-129 -112l-47 52l176 151l176 -151l-47 -52z" />
    <glyph glyph-name="Idieresis" unicode="&#xcf;" horiz-adv-x="270" 
d="M214 738q0 28 20 48t48 20t48 -20t20 -48t-20 -48t-48 -20t-48 20t-20 48zM-80 738q0 28 20 48t48 20t48 -20t20 -48t-20 -48t-48 -20t-48 20t-20 48zM180 0h-90v700h90v-700z" />
    <glyph glyph-name="Eth" unicode="&#xd0;" horiz-adv-x="719" 
d="M0 310v90h80v300h240q149 0 249 -99.5t100 -250.5t-100 -250.5t-249 -99.5h-240v310h-80zM320 610h-150v-210h170v-90h-170v-220h150q113 0 186 73t73 187t-73 187t-186 73z" />
    <glyph glyph-name="Ntilde" unicode="&#xd1;" horiz-adv-x="787" 
d="M707 0h-86l-451 547v-547h-90v700h83l454 -551v551h90v-700zM479 847q19 0 56 39l48 -46q-58 -69 -106 -69q-27 0 -65.5 23.5t-50.5 23.5q-19 0 -56 -39l-48 46q58 69 106 69q27 0 65.5 -23.5t50.5 -23.5z" />
    <glyph glyph-name="Ograve" unicode="&#xd2;" horiz-adv-x="798" 
d="M399 700q150 0 249.5 -100t99.5 -250t-99.5 -250t-249.5 -100q-149 0 -249 100t-100 250t100 250t249 100zM399 90q112 0 185.5 74t73.5 186t-73.5 186t-185.5 74t-185.5 -74t-73.5 -186t73.5 -186t185.5 -74zM316 958l212 -137l-39 -60l-213 133z" />
    <glyph glyph-name="Oacute" unicode="&#xd3;" horiz-adv-x="798" 
d="M399 700q150 0 249.5 -100t99.5 -250t-99.5 -250t-249.5 -100q-149 0 -249 100t-100 250t100 250t249 100zM399 90q112 0 185.5 74t73.5 186t-73.5 186t-185.5 74t-185.5 -74t-73.5 -186t73.5 -186t185.5 -74zM279 821l212 137l40 -64l-213 -133z" />
    <glyph glyph-name="Ocircumflex" unicode="&#xd4;" horiz-adv-x="798" 
d="M399 700q150 0 249.5 -100t99.5 -250t-99.5 -250t-249.5 -100q-149 0 -249 100t-100 250t100 250t249 100zM399 90q112 0 185.5 74t73.5 186t-73.5 186t-185.5 74t-185.5 -74t-73.5 -186t73.5 -186t185.5 -74zM399 867l-129 -112l-47 52l176 151l176 -151l-47 -52z" />
    <glyph glyph-name="Otilde" unicode="&#xd5;" horiz-adv-x="798" 
d="M399 700q150 0 249.5 -100t99.5 -250t-99.5 -250t-249.5 -100q-149 0 -249 100t-100 250t100 250t249 100zM399 90q112 0 185.5 74t73.5 186t-73.5 186t-185.5 74t-185.5 -74t-73.5 -186t73.5 -186t185.5 -74zM459 847q19 0 56 39l48 -46q-58 -69 -106 -69
q-27 0 -65.5 23.5t-50.5 23.5q-19 0 -56 -39l-48 46q58 69 106 69q27 0 65.5 -23.5t50.5 -23.5z" />
    <glyph glyph-name="Odieresis" unicode="&#xd6;" horiz-adv-x="816" 
d="M50 738q0 28 20 48t48 20t48 -20t20 -48t-20 -48t-48 -20t-48 20t-20 48zM630 738q0 28 20 48t48 20t48 -20t20 -48t-20 -48t-48 -20t-48 20t-20 48zM408 700q150 0 249.5 -100t99.5 -250t-99.5 -250t-249.5 -100q-149 0 -249 100t-100 250t100 250t249 100zM408 90
q112 0 185.5 74t73.5 186t-73.5 186t-185.5 74t-185.5 -74t-73.5 -186t73.5 -186t185.5 -74z" />
    <glyph glyph-name="multiply" unicode="&#xd7;" 
d="M113 494l60 60l176 -176l177 177l60 -61l-176 -177l176 -176l-60 -61l-177 177l-176 -176l-60 60l176 176z" />
    <glyph glyph-name="Oslash" unicode="&#xd8;" horiz-adv-x="798" 
d="M81 29l64 75q-95 100 -95 246q0 150 100 250t249 100q113 0 201 -60l64 76l53 -46l-64 -75q95 -100 95 -245q0 -150 -99.5 -250t-249.5 -100q-113 0 -200 59l-64 -75zM140 350q0 -104 64 -176l337 397q-62 39 -142 39q-112 0 -185.5 -74t-73.5 -186zM399 90
q112 0 185.5 74t73.5 186q0 103 -64 175l-336 -396q62 -39 141 -39z" />
    <glyph glyph-name="Ugrave" unicode="&#xd9;" horiz-adv-x="780" 
d="M70 320v380h90v-380q0 -98 66 -164t164 -66t164 66t66 164v380h90v-380q0 -136 -92 -228t-228 -92t-228 92t-92 228zM307 958l212 -137l-39 -60l-213 133z" />
    <glyph glyph-name="Uacute" unicode="&#xda;" horiz-adv-x="780" 
d="M70 320v380h90v-380q0 -98 66 -164t164 -66t164 66t66 164v380h90v-380q0 -136 -92 -228t-228 -92t-228 92t-92 228zM270 821l212 137l40 -64l-213 -133z" />
    <glyph glyph-name="Ucircumflex" unicode="&#xdb;" horiz-adv-x="780" 
d="M70 320v380h90v-380q0 -98 66 -164t164 -66t164 66t66 164v380h90v-380q0 -136 -92 -228t-228 -92t-228 92t-92 228zM390 867l-129 -112l-47 52l176 151l176 -151l-47 -52z" />
    <glyph glyph-name="Udieresis" unicode="&#xdc;" horiz-adv-x="780" 
d="M210 738q0 28 20 48t48 20t48 -20t20 -48t-20 -48t-48 -20t-48 20t-20 48zM434 738q0 28 20 48t48 20t48 -20t20 -48t-20 -48t-48 -20t-48 20t-20 48zM70 320v380h90v-380q0 -98 66 -164t164 -66t164 66t66 164v380h90v-380q0 -136 -92 -228t-228 -92t-228 92t-92 228z
" />
    <glyph glyph-name="Yacute" unicode="&#xdd;" horiz-adv-x="662" 
d="M331 388l216 312h110l-281 -405v-295h-90v295l-281 405h110zM211 821l212 137l40 -64l-213 -133z" />
    <glyph glyph-name="Thorn" unicode="&#xde;" horiz-adv-x="594" 
d="M303 124h-133v-124h-90v700h89v-124h134q100 0 165.5 -64t65.5 -162t-65.5 -162t-165.5 -64zM170 214h133q58 0 98.5 39t40.5 97t-40.5 97t-98.5 39h-133v-272z" />
    <glyph glyph-name="germandbls" unicode="&#xdf;" horiz-adv-x="573" 
d="M70 -75v557q0 106 53.5 168.5t160.5 62.5q100 0 152 -50t52 -127q0 -51 -24.5 -89.5t-68.5 -55.5q65 -13 106.5 -61t41.5 -126q0 -100 -64 -155.5t-172 -55.5q-30 0 -63 3v79q27 -2 54 -2q72 0 115.5 33t43.5 98q0 68 -51 103.5t-133 37.5v76q129 9 129 115
q0 44 -33 70.5t-89 26.5q-58 0 -91 -39t-33 -112v-557h-86z" />
    <glyph glyph-name="agrave" unicode="&#xe0;" horiz-adv-x="530" 
d="M379 350v11q0 33 -29.5 53.5t-79.5 20.5q-113 0 -129 -91l-78 42q32 126 199 126q102 0 152.5 -49t50.5 -138v-325h-86v71q-24 -37 -67 -59t-94 -22q-81 0 -127 43t-46 110q0 69 43 109.5t109 46.5l145 14q17 1 27 11.5t10 25.5zM379 239l-167 -20q-79 -10 -79 -76
q0 -33 24.5 -52.5t73.5 -19.5q60 0 104 41t44 90v37zM179 778l212 -137l-39 -60l-213 133z" />
    <glyph glyph-name="aacute" unicode="&#xe1;" horiz-adv-x="530" 
d="M379 350v11q0 33 -29.5 53.5t-79.5 20.5q-113 0 -129 -91l-78 42q32 126 199 126q102 0 152.5 -49t50.5 -138v-325h-86v71q-24 -37 -67 -59t-94 -22q-81 0 -127 43t-46 110q0 69 43 109.5t109 46.5l145 14q17 1 27 11.5t10 25.5zM379 239l-167 -20q-79 -10 -79 -76
q0 -33 24.5 -52.5t73.5 -19.5q60 0 104 41t44 90v37zM139 641l212 137l40 -64l-213 -133z" />
    <glyph glyph-name="acircumflex" unicode="&#xe2;" horiz-adv-x="530" 
d="M379 350v11q0 33 -29.5 53.5t-79.5 20.5q-113 0 -129 -91l-78 42q32 126 199 126q102 0 152.5 -49t50.5 -138v-325h-86v71q-24 -37 -67 -59t-94 -22q-81 0 -127 43t-46 110q0 69 43 109.5t109 46.5l145 14q17 1 27 11.5t10 25.5zM379 239l-167 -20q-79 -10 -79 -76
q0 -33 24.5 -52.5t73.5 -19.5q60 0 104 41t44 90v37zM265 687l-129 -112l-47 52l176 151l176 -151l-47 -52z" />
    <glyph glyph-name="atilde" unicode="&#xe3;" horiz-adv-x="530" 
d="M379 350v11q0 33 -29.5 53.5t-79.5 20.5q-113 0 -129 -91l-78 42q32 126 199 126q102 0 152.5 -49t50.5 -138v-325h-86v71q-24 -37 -67 -59t-94 -22q-81 0 -127 43t-46 110q0 69 43 109.5t109 46.5l145 14q17 1 27 11.5t10 25.5zM379 239l-167 -20q-79 -10 -79 -76
q0 -33 24.5 -52.5t73.5 -19.5q60 0 104 41t44 90v37zM324 667q19 0 56 39l48 -46q-58 -69 -106 -69q-27 0 -65.5 23.5t-50.5 23.5q-19 0 -56 -39l-48 46q58 69 106 69q27 0 65.5 -23.5t50.5 -23.5z" />
    <glyph glyph-name="adieresis" unicode="&#xe4;" horiz-adv-x="530" 
d="M379 350v11q0 33 -29.5 53.5t-79.5 20.5q-113 0 -129 -91l-78 42q32 126 199 126q102 0 152.5 -49t50.5 -138v-325h-86v71q-24 -37 -67 -59t-94 -22q-81 0 -127 43t-46 110q0 69 43 109.5t109 46.5l145 14q17 1 27 11.5t10 25.5zM379 239l-167 -20q-79 -10 -79 -76
q0 -33 24.5 -52.5t73.5 -19.5q60 0 104 41t44 90v37zM81 645q0 29 19.5 48.5t48.5 19.5t48.5 -19.5t19.5 -48.5t-19.5 -48.5t-48.5 -19.5t-48.5 19.5t-19.5 48.5zM313 645q0 29 19.5 48.5t48.5 19.5t48.5 -19.5t19.5 -48.5t-19.5 -48.5t-48.5 -19.5t-48.5 19.5t-19.5 48.5z
" />
    <glyph glyph-name="aring" unicode="&#xe5;" horiz-adv-x="530" 
d="M379 350v11q0 33 -29.5 53.5t-79.5 20.5q-113 0 -129 -91l-78 42q32 126 199 126q102 0 152.5 -49t50.5 -138v-325h-86v71q-24 -37 -67 -59t-94 -22q-81 0 -127 43t-46 110q0 69 43 109.5t109 46.5l145 14q17 1 27 11.5t10 25.5zM379 239l-167 -20q-79 -10 -79 -76
q0 -33 24.5 -52.5t73.5 -19.5q60 0 104 41t44 90v37zM265 628q24 0 38.5 15.5t14.5 39.5t-14.5 39.5t-38.5 15.5t-38.5 -15.5t-14.5 -39.5t14.5 -39.5t38.5 -15.5zM265 573q-48 0 -79 31t-31 79t31 79.5t79 31.5t79 -31.5t31 -79.5t-31 -79t-79 -31z" />
    <glyph glyph-name="ae" unicode="&#xe6;" horiz-adv-x="865" 
d="M763 149l46 -70q-39 -45 -85 -68t-117 -23q-126 0 -192 104q-17 -23 -29.5 -36.5t-35.5 -31t-55 -26t-74 -8.5q-79 0 -127.5 43.5t-48.5 110.5q0 68 44.5 108t108.5 46l144 14q17 1 27 12t10 25v12q0 34 -29 54t-81 20q-113 0 -129 -92l-78 42q33 127 198 127
q128 0 174 -80q60 80 173 80q105 0 168.5 -74t64.5 -188v-26h-383q2 -72 44 -114t106 -42q91 0 156 81zM379 238l-166 -19q-39 -4 -59.5 -25.5t-20.5 -49.5q0 -34 27 -53.5t76 -19.5q60 0 101.5 39t41.5 92v36zM464 293h283q-5 63 -42 101t-98 38t-97.5 -37t-45.5 -102z" />
    <glyph glyph-name="ccedilla" unicode="&#xe7;" horiz-adv-x="494" 
d="M30 250q0 112 74 187t185 75q107 0 176 -74l-54 -68q-49 59 -124 59q-71 0 -119.5 -50t-48.5 -129q0 -80 48.5 -129.5t119.5 -49.5q75 0 129 62l53 -69q-54 -58 -135 -72q25 -36 25 -73q0 -41 -25 -63.5t-62 -22.5q-27 0 -51 10v58q25 -7 38 -7q32 0 32 34q0 27 -22 61
q-104 7 -171.5 80.5t-67.5 180.5z" />
    <glyph glyph-name="egrave" unicode="&#xe8;" horiz-adv-x="542" 
d="M440 145l44 -66q-81 -91 -199 -91q-113 0 -184 72t-71 186q0 112 67.5 189t178.5 77q108 0 174.5 -74.5t66.5 -187.5v-26h-401q4 -74 50.5 -115t114.5 -41q93 0 159 77zM122 293h301q-8 63 -46 101t-98 38q-62 0 -104 -38t-53 -101zM198 778l212 -137l-39 -60l-213 133z
" />
    <glyph glyph-name="eacute" unicode="&#xe9;" horiz-adv-x="542" 
d="M440 145l44 -66q-81 -91 -199 -91q-113 0 -184 72t-71 186q0 112 67.5 189t178.5 77q108 0 174.5 -74.5t66.5 -187.5v-26h-401q4 -74 50.5 -115t114.5 -41q93 0 159 77zM122 293h301q-8 63 -46 101t-98 38q-62 0 -104 -38t-53 -101zM165 641l212 137l40 -64l-213 -133z
" />
    <glyph glyph-name="ecircumflex" unicode="&#xea;" horiz-adv-x="542" 
d="M440 145l44 -66q-81 -91 -199 -91q-113 0 -184 72t-71 186q0 112 67.5 189t178.5 77q108 0 174.5 -74.5t66.5 -187.5v-26h-401q4 -74 50.5 -115t114.5 -41q93 0 159 77zM122 293h301q-8 63 -46 101t-98 38q-62 0 -104 -38t-53 -101zM281 687l-129 -112l-47 52l176 151
l176 -151l-47 -52z" />
    <glyph glyph-name="edieresis" unicode="&#xeb;" horiz-adv-x="542" 
d="M440 145l44 -66q-81 -91 -199 -91q-113 0 -184 72t-71 186q0 112 67.5 189t178.5 77q108 0 174.5 -74.5t66.5 -187.5v-26h-401q4 -74 50.5 -115t114.5 -41q93 0 159 77zM122 293h301q-8 63 -46 101t-98 38q-62 0 -104 -38t-53 -101zM102 645q0 29 20 48.5t48 19.5
t48 -19.5t20 -48.5t-20 -48.5t-48 -19.5t-48 19.5t-20 48.5zM334 645q0 29 20 48.5t48 19.5t48 -19.5t20 -48.5t-20 -48.5t-48 -19.5t-48 19.5t-20 48.5z" />
    <glyph glyph-name="igrave" unicode="&#xec;" horiz-adv-x="256" 
d="M85 0v500h86v-500h-86zM2 778l212 -137l-39 -60l-213 133z" />
    <glyph glyph-name="iacute" unicode="&#xed;" horiz-adv-x="256" 
d="M85 0v500h86v-500h-86zM50 641l212 137l40 -64l-213 -133z" />
    <glyph glyph-name="icircumflex" unicode="&#xee;" horiz-adv-x="256" 
d="M85 0v500h86v-500h-86zM128 687l-129 -112l-47 52l176 151l176 -151l-47 -52z" />
    <glyph glyph-name="idieresis" unicode="&#xef;" horiz-adv-x="256" 
d="M85 0v500h86v-500h-86zM-56 645q0 29 20 48.5t48 19.5t48 -19.5t20 -48.5t-20 -48.5t-48 -19.5t-48 19.5t-20 48.5zM176 645q0 29 20 48.5t48 19.5t48 -19.5t20 -48.5t-20 -48.5t-48 -19.5t-48 19.5t-20 48.5z" />
    <glyph glyph-name="eth" unicode="&#xf0;" horiz-adv-x="609" 
d="M200 619l85 58q-39 25 -101 50l29 66q78 -26 141 -69l89 60l40 -56l-73 -49q139 -134 139 -363q0 -156 -74 -242t-193 -86q-109 0 -180.5 73t-71.5 189q0 114 72 188t176 74q113 0 174 -86q-20 125 -110 207l-102 -69zM458 248q0 80 -45.5 130.5t-125.5 50.5
q-76 0 -122 -49.5t-46 -128.5q0 -80 47 -130t122 -50q73 0 121.5 49t48.5 128z" />
    <glyph glyph-name="ntilde" unicode="&#xf1;" horiz-adv-x="577" 
d="M419 0v298q0 65 -29.5 99.5t-86.5 34.5q-81 0 -118 -59q-29 -46 -29 -140v-233h-86v500h83v-66q56 78 163 78q96 0 143.5 -58.5t47.5 -159.5v-294h-88zM347 667q19 0 56 39l48 -46q-58 -69 -106 -69q-27 0 -65.5 23.5t-50.5 23.5q-19 0 -56 -39l-48 46q58 69 106 69
q27 0 65.5 -23.5t50.5 -23.5z" />
    <glyph glyph-name="ograve" unicode="&#xf2;" horiz-adv-x="584" 
d="M292 512q109 0 185.5 -76.5t76.5 -185.5t-76.5 -185.5t-185.5 -76.5t-185.5 76.5t-76.5 185.5t76.5 185.5t185.5 76.5zM292 71q74 0 123.5 51.5t49.5 127.5t-49.5 127.5t-123.5 51.5t-123.5 -51.5t-49.5 -127.5t49.5 -127.5t123.5 -51.5zM206 778l212 -137l-39 -60
l-213 133z" />
    <glyph glyph-name="oacute" unicode="&#xf3;" horiz-adv-x="584" 
d="M292 512q109 0 185.5 -76.5t76.5 -185.5t-76.5 -185.5t-185.5 -76.5t-185.5 76.5t-76.5 185.5t76.5 185.5t185.5 76.5zM292 71q74 0 123.5 51.5t49.5 127.5t-49.5 127.5t-123.5 51.5t-123.5 -51.5t-49.5 -127.5t49.5 -127.5t123.5 -51.5zM166 641l212 137l40 -64
l-213 -133z" />
    <glyph glyph-name="ocircumflex" unicode="&#xf4;" horiz-adv-x="584" 
d="M292 512q109 0 185.5 -76.5t76.5 -185.5t-76.5 -185.5t-185.5 -76.5t-185.5 76.5t-76.5 185.5t76.5 185.5t185.5 76.5zM292 71q74 0 123.5 51.5t49.5 127.5t-49.5 127.5t-123.5 51.5t-123.5 -51.5t-49.5 -127.5t49.5 -127.5t123.5 -51.5zM292 687l-129 -112l-47 52
l176 151l176 -151l-47 -52z" />
    <glyph glyph-name="otilde" unicode="&#xf5;" horiz-adv-x="584" 
d="M292 512q109 0 185.5 -76.5t76.5 -185.5t-76.5 -185.5t-185.5 -76.5t-185.5 76.5t-76.5 185.5t76.5 185.5t185.5 76.5zM292 71q74 0 123.5 51.5t49.5 127.5t-49.5 127.5t-123.5 51.5t-123.5 -51.5t-49.5 -127.5t49.5 -127.5t123.5 -51.5zM351 667q19 0 56 39l48 -46
q-58 -69 -106 -69q-27 0 -65.5 23.5t-50.5 23.5q-19 0 -56 -39l-48 46q58 69 106 69q27 0 65.5 -23.5t50.5 -23.5z" />
    <glyph glyph-name="odieresis" unicode="&#xf6;" horiz-adv-x="584" 
d="M292 512q109 0 185.5 -76.5t76.5 -185.5t-76.5 -185.5t-185.5 -76.5t-185.5 76.5t-76.5 185.5t76.5 185.5t185.5 76.5zM292 71q74 0 123.5 51.5t49.5 127.5t-49.5 127.5t-123.5 51.5t-123.5 -51.5t-49.5 -127.5t49.5 -127.5t123.5 -51.5zM108 645q0 29 20 48.5t48 19.5
t48 -19.5t20 -48.5t-20 -48.5t-48 -19.5t-48 19.5t-20 48.5zM340 645q0 29 20 48.5t48 19.5t48 -19.5t20 -48.5t-20 -48.5t-48 -19.5t-48 19.5t-20 48.5z" />
    <glyph glyph-name="divide" unicode="&#xf7;" 
d="M76 269v90h548v-90h-548zM262 130q0 33 22.5 56t55.5 23t56 -23t23 -56t-23 -55.5t-56 -22.5t-55.5 22.5t-22.5 55.5zM262 497q0 33 22.5 56t55.5 23t56 -23t23 -56t-23 -55.5t-56 -22.5t-55.5 22.5t-22.5 55.5z" />
    <glyph glyph-name="oslash" unicode="&#xf8;" horiz-adv-x="584" 
d="M58 29l39 46q-67 75 -67 176q0 109 76.5 185.5t185.5 76.5q78 0 142 -42l38 45l53 -46l-38 -45q67 -73 67 -174q0 -109 -76.5 -185.5t-185.5 -76.5q-78 0 -141 41l-39 -46zM119 251q0 -64 34 -110l226 266q-41 23 -87 23q-74 0 -123.5 -51.5t-49.5 -127.5zM292 72
q74 0 123.5 51.5t49.5 127.5q0 59 -34 108l-226 -265q39 -22 87 -22z" />
    <glyph glyph-name="ugrave" unicode="&#xf9;" horiz-adv-x="570" 
d="M158 500v-296q0 -65 24.5 -100.5t85.5 -35.5q81 0 117 59q29 46 29 140v233h86v-500h-83v72q-59 -84 -164 -84q-183 0 -183 216v296h88zM199 778l212 -137l-39 -60l-213 133z" />
    <glyph glyph-name="uacute" unicode="&#xfa;" horiz-adv-x="570" 
d="M158 500v-296q0 -65 24.5 -100.5t85.5 -35.5q81 0 117 59q29 46 29 140v233h86v-500h-83v72q-59 -84 -164 -84q-183 0 -183 216v296h88zM159 641l212 137l40 -64l-213 -133z" />
    <glyph glyph-name="ucircumflex" unicode="&#xfb;" horiz-adv-x="570" 
d="M158 500v-296q0 -65 24.5 -100.5t85.5 -35.5q81 0 117 59q29 46 29 140v233h86v-500h-83v72q-59 -84 -164 -84q-183 0 -183 216v296h88zM285 687l-129 -112l-47 52l176 151l176 -151l-47 -52z" />
    <glyph glyph-name="udieresis" unicode="&#xfc;" horiz-adv-x="570" 
d="M158 500v-296q0 -65 24.5 -100.5t85.5 -35.5q81 0 117 59q29 46 29 140v233h86v-500h-83v72q-59 -84 -164 -84q-183 0 -183 216v296h88zM101 645q0 29 19.5 48.5t48.5 19.5t48.5 -19.5t19.5 -48.5t-19.5 -48.5t-48.5 -19.5t-48.5 19.5t-19.5 48.5zM333 645
q0 29 19.5 48.5t48.5 19.5t48.5 -19.5t19.5 -48.5t-19.5 -48.5t-48.5 -19.5t-48.5 19.5t-19.5 48.5z" />
    <glyph glyph-name="yacute" unicode="&#xfd;" horiz-adv-x="525" 
d="M10 500h104l159 -332l156 332h91l-323 -700h-93l123 268zM136 641l212 137l40 -64l-213 -133z" />
    <glyph glyph-name="thorn" unicode="&#xfe;" horiz-adv-x="583" 
d="M156 72v-272h-86v900h86v-269l1 2q68 62 162 62q103 0 168.5 -66.5t65.5 -178.5t-65 -178.5t-167 -66.5q-98 0 -165 67zM309 88q70 0 112.5 45.5t42.5 116.5t-42.5 116.5t-112.5 45.5q-74 0 -116.5 -44t-42.5 -118t42.5 -118t116.5 -44z" />
    <glyph glyph-name="ydieresis" unicode="&#xff;" horiz-adv-x="525" 
d="M10 500h104l159 -332l156 332h91l-323 -700h-93l123 268zM78 645q0 29 20 48.5t48 19.5t48 -19.5t20 -48.5t-20 -48.5t-48 -19.5t-48 19.5t-20 48.5zM310 645q0 29 20 48.5t48 19.5t48 -19.5t20 -48.5t-20 -48.5t-48 -19.5t-48 19.5t-20 48.5z" />
    <glyph glyph-name="Amacron" unicode="&#x100;" horiz-adv-x="766" 
d="M756 0h-99l-56 123h-436l-56 -123h-99l326 700h94zM383 591l-175 -378h350zM233 792v75h300v-75h-300z" />
    <glyph glyph-name="amacron" unicode="&#x101;" horiz-adv-x="530" 
d="M379 350v11q0 33 -29.5 53.5t-79.5 20.5q-113 0 -129 -91l-78 42q32 126 199 126q102 0 152.5 -49t50.5 -138v-325h-86v71q-24 -37 -67 -59t-94 -22q-81 0 -127 43t-46 110q0 69 43 109.5t109 46.5l145 14q17 1 27 11.5t10 25.5zM379 239l-167 -20q-79 -10 -79 -76
q0 -33 24.5 -52.5t73.5 -19.5q60 0 104 41t44 90v37zM115 612v75h300v-75h-300z" />
    <glyph glyph-name="Abreve" unicode="&#x102;" horiz-adv-x="766" 
d="M756 0h-99l-56 123h-436l-56 -123h-99l326 700h94zM383 591l-175 -378h350zM383 758q-66 0 -104 42t-38 111h73q0 -81 69 -81t69 81h73q0 -69 -38 -111t-104 -42z" />
    <glyph glyph-name="abreve" unicode="&#x103;" horiz-adv-x="530" 
d="M379 350v11q0 33 -29.5 53.5t-79.5 20.5q-113 0 -129 -91l-78 42q32 126 199 126q102 0 152.5 -49t50.5 -138v-325h-86v71q-24 -37 -67 -59t-94 -22q-81 0 -127 43t-46 110q0 69 43 109.5t109 46.5l145 14q17 1 27 11.5t10 25.5zM379 239l-167 -20q-79 -10 -79 -76
q0 -33 24.5 -52.5t73.5 -19.5q60 0 104 41t44 90v37zM265 578q-66 0 -104 42t-38 111h73q0 -81 69 -81t69 81h73q0 -69 -38 -111t-104 -42z" />
    <glyph glyph-name="Aogonek" unicode="&#x104;" horiz-adv-x="766" 
d="M756 0h-62q-30 -39 -30 -72q0 -34 31 -34q13 0 38 7v-58q-24 -10 -51 -10q-37 0 -62 22.5t-25 63.5q0 51 51 105l-45 99h-436l-56 -123h-99l326 700h94zM383 591l-175 -378h350z" />
    <glyph glyph-name="aogonek" unicode="&#x105;" horiz-adv-x="530" 
d="M379 350v11q0 33 -29.5 53.5t-79.5 20.5q-113 0 -129 -91l-78 42q32 126 199 126q102 0 152.5 -49t50.5 -138v-325h-40q-30 -39 -30 -72q0 -34 31 -34q14 0 38 7v-58q-24 -10 -51 -10q-37 0 -62 22.5t-25 63.5q0 53 53 107v45q-24 -37 -67 -59t-94 -22q-81 0 -127 43
t-46 110q0 69 43 109.5t109 46.5l145 14q17 1 27 11.5t10 25.5zM379 239l-167 -20q-79 -10 -79 -76q0 -33 24.5 -52.5t73.5 -19.5q60 0 104 41t44 90v37z" />
    <glyph glyph-name="Cacute" unicode="&#x106;" horiz-adv-x="659" 
d="M644 600l-41 -85q-88 95 -209 95q-109 0 -181.5 -72.5t-72.5 -187.5t72.5 -187.5t181.5 -72.5q61 0 129 31l16 -92q-81 -29 -145 -29q-143 0 -243.5 101t-100.5 249q0 149 100.5 249.5t247.5 100.5q139 0 246 -100zM283 821l212 137l40 -64l-213 -133z" />
    <glyph glyph-name="cacute" unicode="&#x107;" horiz-adv-x="494" 
d="M30 250q0 112 74 187t185 75q107 0 176 -74l-54 -68q-49 59 -124 59q-71 0 -119.5 -50t-48.5 -129q0 -80 48.5 -129.5t119.5 -49.5q75 0 129 62l53 -69q-73 -76 -181 -76q-110 0 -184 75t-74 187zM166 641l212 137l40 -64l-213 -133z" />
    <glyph glyph-name="Ccircumflex" unicode="&#x108;" horiz-adv-x="659" 
d="M644 600l-41 -85q-88 95 -209 95q-109 0 -181.5 -72.5t-72.5 -187.5t72.5 -187.5t181.5 -72.5q61 0 129 31l16 -92q-81 -29 -145 -29q-143 0 -243.5 101t-100.5 249q0 149 100.5 249.5t247.5 100.5q139 0 246 -100zM375 867l-129 -112l-47 52l176 151l176 -151l-47 -52z
" />
    <glyph glyph-name="ccircumflex" unicode="&#x109;" horiz-adv-x="494" 
d="M30 250q0 112 74 187t185 75q107 0 176 -74l-54 -68q-49 59 -124 59q-71 0 -119.5 -50t-48.5 -129q0 -80 48.5 -129.5t119.5 -49.5q75 0 129 62l53 -69q-73 -76 -181 -76q-110 0 -184 75t-74 187zM280 687l-129 -112l-47 52l176 151l176 -151l-47 -52z" />
    <glyph glyph-name="Cdotaccent" unicode="&#x10a;" horiz-adv-x="659" 
d="M644 600l-41 -85q-88 95 -209 95q-109 0 -181.5 -72.5t-72.5 -187.5t72.5 -187.5t181.5 -72.5q61 0 129 31l16 -92q-81 -29 -145 -29q-143 0 -243.5 101t-100.5 249q0 149 100.5 249.5t247.5 100.5q139 0 246 -100zM335 825q0 29 19.5 48.5t48.5 19.5t48.5 -19.5
t19.5 -48.5t-19.5 -48.5t-48.5 -19.5t-48.5 19.5t-19.5 48.5z" />
    <glyph glyph-name="cdotaccent" unicode="&#x10b;" horiz-adv-x="494" 
d="M30 250q0 112 74 187t185 75q107 0 176 -74l-54 -68q-49 59 -124 59q-71 0 -119.5 -50t-48.5 -129q0 -80 48.5 -129.5t119.5 -49.5q75 0 129 62l53 -69q-73 -76 -181 -76q-110 0 -184 75t-74 187zM219 645q0 29 19.5 48.5t48.5 19.5t48.5 -19.5t19.5 -48.5t-19.5 -48.5
t-48.5 -19.5t-48.5 19.5t-19.5 48.5z" />
    <glyph glyph-name="Ccaron" unicode="&#x10c;" horiz-adv-x="659" 
d="M644 600l-41 -85q-88 95 -209 95q-109 0 -181.5 -72.5t-72.5 -187.5t72.5 -187.5t181.5 -72.5q61 0 129 31l16 -92q-81 -29 -145 -29q-143 0 -243.5 101t-100.5 249q0 149 100.5 249.5t247.5 100.5q139 0 246 -100zM248 958l129 -112l129 112l47 -52l-176 -151l-176 151z
" />
    <glyph glyph-name="ccaron" unicode="&#x10d;" horiz-adv-x="494" 
d="M30 250q0 112 74 187t185 75q107 0 176 -74l-54 -68q-49 59 -124 59q-71 0 -119.5 -50t-48.5 -129q0 -80 48.5 -129.5t119.5 -49.5q75 0 129 62l53 -69q-73 -76 -181 -76q-110 0 -184 75t-74 187zM152 778l129 -112l129 112l47 -52l-176 -151l-176 151z" />
    <glyph glyph-name="Dcaron" unicode="&#x10e;" horiz-adv-x="719" 
d="M80 0v700h240q149 0 249 -99.5t100 -250.5t-100 -250.5t-249 -99.5h-240zM320 610h-150v-520h150q113 0 186 73t73 187t-73 187t-186 73zM158 958l129 -112l129 112l47 -52l-176 -151l-176 151z" />
    <glyph glyph-name="dcaron" unicode="&#x10f;" horiz-adv-x="759" 
d="M275 512q116 0 172 -80v268h86v-700h-86v72q-26 -39 -71.5 -61.5t-103.5 -22.5q-105 0 -173.5 72t-68.5 190q0 119 68.5 190.5t176.5 71.5zM289 68q76 0 120 49.5t44 132.5t-44 132.5t-120 49.5q-77 0 -123.5 -51t-46.5 -131t46.5 -131t123.5 -51zM601 489l49 86
q-23 7 -37 26.5t-14 40.5q0 28 20 49.5t49 21.5q30 0 50.5 -21.5t20.5 -49.5q0 -14 -11 -34l-81 -145z" />
    <glyph glyph-name="Dcroat" unicode="&#x110;" horiz-adv-x="719" 
d="M0 310v90h80v300h240q149 0 249 -99.5t100 -250.5t-100 -250.5t-249 -99.5h-240v310h-80zM320 610h-150v-210h170v-90h-170v-220h150q113 0 186 73t73 187t-73 187t-186 73z" />
    <glyph glyph-name="dcroat" unicode="&#x111;" horiz-adv-x="603" 
d="M327 575v77h120v48h86v-48h56v-77h-56v-575h-86v72q-26 -39 -71.5 -61.5t-103.5 -22.5q-105 0 -173.5 72t-68.5 190q0 119 68.5 190.5t176.5 71.5q116 0 172 -80v143h-120zM289 68q76 0 120 49.5t44 132.5t-44 132.5t-120 49.5q-77 0 -123.5 -51t-46.5 -131t46.5 -131
t123.5 -51z" />
    <glyph glyph-name="Emacron" unicode="&#x112;" horiz-adv-x="565" 
d="M80 0v700h430v-90h-340v-215h340v-90h-340v-215h340v-90h-430zM157 792v75h300v-75h-300z" />
    <glyph glyph-name="emacron" unicode="&#x113;" horiz-adv-x="542" 
d="M440 145l44 -66q-81 -91 -199 -91q-113 0 -184 72t-71 186q0 112 67.5 189t178.5 77q108 0 174.5 -74.5t66.5 -187.5v-26h-401q4 -74 50.5 -115t114.5 -41q93 0 159 77zM122 293h301q-8 63 -46 101t-98 38q-62 0 -104 -38t-53 -101zM131 612v75h300v-75h-300z" />
    <glyph glyph-name="Ebreve" unicode="&#x114;" horiz-adv-x="565" 
d="M80 0v700h430v-90h-340v-215h340v-90h-340v-215h340v-90h-430zM307 758q-66 0 -104 42t-38 111h73q0 -81 69 -81t69 81h73q0 -69 -38 -111t-104 -42z" />
    <glyph glyph-name="ebreve" unicode="&#x115;" horiz-adv-x="542" 
d="M440 145l44 -66q-81 -91 -199 -91q-113 0 -184 72t-71 186q0 112 67.5 189t178.5 77q108 0 174.5 -74.5t66.5 -187.5v-26h-401q4 -74 50.5 -115t114.5 -41q93 0 159 77zM122 293h301q-8 63 -46 101t-98 38q-62 0 -104 -38t-53 -101zM280 578q-66 0 -104 42t-38 111h73
q0 -81 69 -81t69 81h73q0 -69 -38 -111t-104 -42z" />
    <glyph glyph-name="Edotaccent" unicode="&#x116;" horiz-adv-x="565" 
d="M80 0v700h430v-90h-340v-215h340v-90h-340v-215h340v-90h-430zM239 825q0 29 19.5 48.5t48.5 19.5t48.5 -19.5t19.5 -48.5t-19.5 -48.5t-48.5 -19.5t-48.5 19.5t-19.5 48.5z" />
    <glyph glyph-name="edotaccent" unicode="&#x117;" horiz-adv-x="542" 
d="M440 145l44 -66q-81 -91 -199 -91q-113 0 -184 72t-71 186q0 112 67.5 189t178.5 77q108 0 174.5 -74.5t66.5 -187.5v-26h-401q4 -74 50.5 -115t114.5 -41q93 0 159 77zM122 293h301q-8 63 -46 101t-98 38q-62 0 -104 -38t-53 -101zM211 645q0 29 19.5 48.5t48.5 19.5
t48.5 -19.5t19.5 -48.5t-19.5 -48.5t-48.5 -19.5t-48.5 19.5t-19.5 48.5z" />
    <glyph glyph-name="Eogonek" unicode="&#x118;" horiz-adv-x="565" 
d="M80 0v700h430v-90h-340v-215h340v-90h-340v-215h340v-90h-58q-30 -39 -30 -72q0 -34 31 -34q13 0 38 7v-58q-24 -10 -51 -10q-37 0 -62 22.5t-25 63.5q0 42 30 81h-303z" />
    <glyph glyph-name="eogonek" unicode="&#x119;" horiz-adv-x="542" 
d="M440 145l44 -66q-70 -79 -171 -89q-22 -32 -22 -62q0 -34 31 -34q14 0 38 7v-58q-24 -10 -51 -10q-37 0 -62 22.5t-25 63.5q0 35 23 72q-97 12 -156 81.5t-59 173.5q0 112 67.5 189t178.5 77q108 0 174.5 -74.5t66.5 -187.5v-26h-401q4 -74 50.5 -115t114.5 -41
q93 0 159 77zM122 293h301q-8 63 -46 101t-98 38q-62 0 -104 -38t-53 -101z" />
    <glyph glyph-name="Ecaron" unicode="&#x11a;" horiz-adv-x="565" 
d="M80 0v700h430v-90h-340v-215h340v-90h-340v-215h340v-90h-430zM178 958l129 -112l129 112l47 -52l-176 -151l-176 151z" />
    <glyph glyph-name="ecaron" unicode="&#x11b;" horiz-adv-x="542" 
d="M440 145l44 -66q-81 -91 -199 -91q-113 0 -184 72t-71 186q0 112 67.5 189t178.5 77q108 0 174.5 -74.5t66.5 -187.5v-26h-401q4 -74 50.5 -115t114.5 -41q93 0 159 77zM122 293h301q-8 63 -46 101t-98 38q-62 0 -104 -38t-53 -101zM157 778l129 -112l129 112l47 -52
l-176 -151l-176 151z" />
    <glyph glyph-name="Gcircumflex" unicode="&#x11c;" horiz-adv-x="659" 
d="M394 610q-109 0 -181.5 -72.5t-72.5 -187.5t72 -187.5t183 -72.5q29 0 63 8v181h-161v90h251v-337q-81 -32 -155 -32q-143 0 -243 101t-100 250q0 148 100.5 248.5t247.5 100.5q139 0 246 -100l-41 -85q-88 95 -209 95zM390 867l-129 -112l-47 52l176 151l176 -151
l-47 -52z" />
    <glyph glyph-name="gcircumflex" unicode="&#x11d;" horiz-adv-x="613" 
d="M460 27v41q-25 -36 -71 -58t-104 -22q-108 0 -176.5 71.5t-68.5 190.5q0 118 68.5 190t175.5 72q59 0 104.5 -22.5t68.5 -57.5v68h86v-473q0 -240 -241 -240q-163 0 -227 123l67 53q50 -100 167 -100q151 0 151 164zM299 432q-77 0 -123.5 -51t-46.5 -131t46.5 -131
t123.5 -51q76 0 120 49.5t44 132.5t-44 132.5t-120 49.5zM296 687l-129 -112l-47 52l176 151l176 -151l-47 -52z" />
    <glyph glyph-name="Gbreve" unicode="&#x11e;" horiz-adv-x="659" 
d="M394 610q-109 0 -181.5 -72.5t-72.5 -187.5t72 -187.5t183 -72.5q29 0 63 8v181h-161v90h251v-337q-81 -32 -155 -32q-143 0 -243 101t-100 250q0 148 100.5 248.5t247.5 100.5q139 0 246 -100l-41 -85q-88 95 -209 95zM390 758q-66 0 -104 42t-38 111h73q0 -81 69 -81
t69 81h73q0 -69 -38 -111t-104 -42z" />
    <glyph glyph-name="gbreve" unicode="&#x11f;" horiz-adv-x="613" 
d="M460 27v41q-25 -36 -71 -58t-104 -22q-108 0 -176.5 71.5t-68.5 190.5q0 118 68.5 190t175.5 72q59 0 104.5 -22.5t68.5 -57.5v68h86v-473q0 -240 -241 -240q-163 0 -227 123l67 53q50 -100 167 -100q151 0 151 164zM299 432q-77 0 -123.5 -51t-46.5 -131t46.5 -131
t123.5 -51q76 0 120 49.5t44 132.5t-44 132.5t-120 49.5zM306 578q-66 0 -104 42t-38 111h73q0 -81 69 -81t69 81h73q0 -69 -38 -111t-104 -42z" />
    <glyph glyph-name="Gdotaccent" unicode="&#x120;" horiz-adv-x="659" 
d="M394 610q-109 0 -181.5 -72.5t-72.5 -187.5t72 -187.5t183 -72.5q29 0 63 8v181h-161v90h251v-337q-81 -32 -155 -32q-143 0 -243 101t-100 250q0 148 100.5 248.5t247.5 100.5q139 0 246 -100l-41 -85q-88 95 -209 95zM322 825q0 29 20 48.5t48 19.5t48 -19.5t20 -48.5
t-20 -48.5t-48 -19.5t-48 19.5t-20 48.5z" />
    <glyph glyph-name="gdotaccent" unicode="&#x121;" horiz-adv-x="613" 
d="M460 27v41q-25 -36 -71 -58t-104 -22q-108 0 -176.5 71.5t-68.5 190.5q0 118 68.5 190t175.5 72q59 0 104.5 -22.5t68.5 -57.5v68h86v-473q0 -240 -241 -240q-163 0 -227 123l67 53q50 -100 167 -100q151 0 151 164zM299 432q-77 0 -123.5 -51t-46.5 -131t46.5 -131
t123.5 -51q76 0 120 49.5t44 132.5t-44 132.5t-120 49.5zM228 645q0 29 20 48.5t48 19.5t48 -19.5t20 -48.5t-20 -48.5t-48 -19.5t-48 19.5t-20 48.5z" />
    <glyph glyph-name="Gcommaaccent" unicode="&#x122;" horiz-adv-x="659" 
d="M394 610q-109 0 -181.5 -72.5t-72.5 -187.5t72 -187.5t183 -72.5q29 0 63 8v181h-161v90h251v-337q-81 -32 -155 -32q-143 0 -243 101t-100 250q0 148 100.5 248.5t247.5 100.5q139 0 246 -100l-41 -85q-88 95 -209 95zM321 -274l49 86q-23 7 -37 26.5t-14 40.5
q0 28 20 49.5t49 21.5q30 0 50.5 -21.5t20.5 -49.5q0 -14 -11 -34l-81 -145z" />
    <glyph glyph-name="gcommaaccent" unicode="&#x123;" horiz-adv-x="613" 
d="M460 27v41q-25 -36 -71 -58t-104 -22q-108 0 -176.5 71.5t-68.5 190.5q0 118 68.5 190t175.5 72q59 0 104.5 -22.5t68.5 -57.5v68h86v-473q0 -240 -241 -240q-163 0 -227 123l67 53q50 -100 167 -100q151 0 151 164zM299 432q-77 0 -123.5 -51t-46.5 -131t46.5 -131
t123.5 -51q76 0 120 49.5t44 132.5t-44 132.5t-120 49.5zM358 786l-49 -86q23 -7 37 -26.5t14 -40.5q0 -28 -20 -49.5t-49 -21.5q-30 0 -50.5 21.5t-20.5 49.5q0 14 11 34l81 145z" />
    <glyph glyph-name="Hcircumflex" unicode="&#x124;" horiz-adv-x="740" 
d="M660 0h-90v305h-400v-305h-90v700h90v-305h400v305h90v-700zM370 867l-129 -112l-47 52l176 151l176 -151l-47 -52z" />
    <glyph glyph-name="hcircumflex" unicode="&#x125;" horiz-adv-x="567" 
d="M419 0v298q0 65 -29.5 99.5t-87.5 34.5q-79 0 -117 -59q-29 -46 -29 -140v-233h-86v700h86v-266q56 78 156 78q99 0 147 -58t48 -160v-294h-88zM145 867l-129 -112l-47 52l176 151l176 -151l-47 -52z" />
    <glyph glyph-name="Hbar" unicode="&#x126;" horiz-adv-x="740" 
d="M30 484v90h50v126h90v-126h400v126h90v-126h50v-90h-50v-484h-90v305h-400v-305h-90v484h-50zM170 395h400v89h-400v-89z" />
    <glyph glyph-name="hbar" unicode="&#x127;" horiz-adv-x="567" 
d="M2 566v77h68v57h86v-57h108v-77h-108v-132q56 78 156 78q99 0 147 -58t48 -160v-294h-88v298q0 65 -29.5 99.5t-87.5 34.5q-79 0 -117 -59q-29 -46 -29 -140v-233h-86v566h-68z" />
    <glyph glyph-name="Itilde" unicode="&#x128;" horiz-adv-x="250" 
d="M170 0h-90v700h90v-700zM185 847q19 0 56 39l48 -46q-58 -69 -106 -69q-27 0 -65.5 23.5t-50.5 23.5q-19 0 -56 -39l-48 46q58 69 106 69q27 0 65.5 -23.5t50.5 -23.5z" />
    <glyph glyph-name="itilde" unicode="&#x129;" horiz-adv-x="256" 
d="M85 0v500h86v-500h-86zM187 667q19 0 56 39l48 -46q-58 -69 -106 -69q-27 0 -65.5 23.5t-50.5 23.5q-19 0 -56 -39l-48 46q58 69 106 69q27 0 65.5 -23.5t50.5 -23.5z" />
    <glyph glyph-name="Imacron" unicode="&#x12a;" horiz-adv-x="250" 
d="M170 0h-90v700h90v-700zM-25 792v75h300v-75h-300z" />
    <glyph glyph-name="imacron" unicode="&#x12b;" horiz-adv-x="256" 
d="M85 0v500h86v-500h-86zM-22 612v75h300v-75h-300z" />
    <glyph glyph-name="Ibreve" unicode="&#x12c;" horiz-adv-x="250" 
d="M170 0h-90v700h90v-700zM125 758q-66 0 -104 42t-38 111h73q0 -81 69 -81t69 81h73q0 -69 -38 -111t-104 -42z" />
    <glyph glyph-name="ibreve" unicode="&#x12d;" horiz-adv-x="256" 
d="M85 0v500h86v-500h-86zM128 578q-66 0 -104 42t-38 111h73q0 -81 69 -81t69 81h73q0 -69 -38 -111t-104 -42z" />
    <glyph glyph-name="Iogonek" unicode="&#x12e;" horiz-adv-x="250" 
d="M170 0h-39q-30 -39 -30 -72q0 -34 31 -34q14 0 38 7v-58q-24 -10 -51 -10q-37 0 -62 22.5t-25 63.5q0 50 48 102v679h90v-700z" />
    <glyph glyph-name="iogonek" unicode="&#x12f;" horiz-adv-x="256" 
d="M171 0h-38q-30 -39 -30 -72q0 -34 31 -34q14 0 38 7v-58q-24 -10 -51 -10q-37 0 -62 22.5t-25 63.5q0 51 51 105v476h86v-500zM60 645q0 29 20 48.5t48 19.5t48 -19.5t20 -48.5t-20 -48.5t-48 -19.5t-48 19.5t-20 48.5z" />
    <glyph glyph-name="Idotaccent" unicode="&#x130;" horiz-adv-x="250" 
d="M170 0h-90v700h90v-700zM57 825q0 29 19.5 48.5t48.5 19.5t48.5 -19.5t19.5 -48.5t-19.5 -48.5t-48.5 -19.5t-48.5 19.5t-19.5 48.5z" />
    <glyph glyph-name="dotlessi" unicode="&#x131;" horiz-adv-x="256" 
d="M85 0v500h86v-500h-86z" />
    <glyph glyph-name="Jcircumflex" unicode="&#x134;" horiz-adv-x="492" 
d="M15 204l83 41q0 -69 30.5 -112t91.5 -43q52 0 82 37.5t30 93.5v479h90v-479q0 -99 -54.5 -160t-147.5 -61q-52 0 -93 19t-64.5 49.5t-35.5 65t-12 70.5zM371 867l-129 -112l-47 52l176 151l176 -151l-47 -52z" />
    <glyph glyph-name="jcircumflex" unicode="&#x135;" horiz-adv-x="265" 
d="M-20 -204v84q69 0 94 23.5t25 72.5v524h86v-524q0 -94 -46.5 -137t-158.5 -43zM133 687l-129 -112l-47 52l176 151l176 -151l-47 -52z" />
    <glyph glyph-name="Kcommaaccent" unicode="&#x136;" horiz-adv-x="647" 
d="M528 0l-252 330l-106 -107v-223h-90v700h90v-349l345 349h127l-302 -305l302 -395h-114zM261 -274l49 86q-23 7 -37 26.5t-14 40.5q0 28 20 49.5t49 21.5q30 0 50.5 -21.5t20.5 -49.5q0 -14 -11 -34l-81 -145z" />
    <glyph glyph-name="kcommaaccent" unicode="&#x137;" horiz-adv-x="515" 
d="M393 0l-161 222l-76 -72v-150h-86v700h86v-435l228 235h121l-212 -221l212 -279h-112zM189 -274l49 86q-23 7 -37 26.5t-14 40.5q0 28 20 49.5t49 21.5q30 0 50.5 -21.5t20.5 -49.5q0 -14 -11 -34l-81 -145z" />
    <glyph glyph-name="kgreenlandic" unicode="&#x138;" horiz-adv-x="515" 
d="M393 0l-161 222l-76 -72v-150h-86v500h86v-235l228 235h121l-212 -221l212 -279h-112z" />
    <glyph glyph-name="Lacute" unicode="&#x139;" horiz-adv-x="532" 
d="M80 0v700h90v-610h347v-90h-437zM62 821l212 137l40 -64l-213 -133z" />
    <glyph glyph-name="lacute" unicode="&#x13a;" horiz-adv-x="228" 
d="M158 0h-88v700h88v-700zM34 821l212 137l40 -64l-213 -133z" />
    <glyph glyph-name="Lcommaaccent" unicode="&#x13b;" horiz-adv-x="532" 
d="M80 0v700h90v-610h347v-90h-437zM203 -274l49 86q-23 7 -37 26.5t-14 40.5q0 28 20 49.5t49 21.5q30 0 50.5 -21.5t20.5 -49.5q0 -14 -11 -34l-81 -145z" />
    <glyph glyph-name="lcommaaccent" unicode="&#x13c;" horiz-adv-x="228" 
d="M158 0h-88v700h88v-700zM46 -274l49 86q-23 7 -37 26.5t-14 40.5q0 28 20 49.5t49 21.5q30 0 50.5 -21.5t20.5 -49.5q0 -14 -11 -34l-81 -145z" />
    <glyph glyph-name="Lcaron" unicode="&#x13d;" horiz-adv-x="532" 
d="M80 0v700h90v-610h347v-90h-437zM53 958l129 -112l129 112l47 -52l-176 -151l-176 151z" />
    <glyph glyph-name="lcaron" unicode="&#x13e;" horiz-adv-x="410" 
d="M158 0h-88v700h88v-700zM242 489l49 86q-23 7 -37 26.5t-14 40.5q0 28 20 49.5t49 21.5q30 0 50.5 -21.5t20.5 -49.5q0 -14 -11 -34l-81 -145z" />
    <glyph glyph-name="Ldot" unicode="&#x13f;" horiz-adv-x="532" 
d="M297 391q0 29 19.5 48.5t48.5 19.5t48.5 -19.5t19.5 -48.5t-19.5 -48.5t-48.5 -19.5t-48.5 19.5t-19.5 48.5zM80 0v700h90v-610h347v-90h-437z" />
    <glyph glyph-name="ldot" unicode="&#x140;" horiz-adv-x="364" 
d="M158 0h-88v700h88v-700zM203 377q0 29 19.5 48.5t48.5 19.5t48.5 -19.5t19.5 -48.5t-19.5 -48.5t-48.5 -19.5t-48.5 19.5t-19.5 48.5z" />
    <glyph glyph-name="Lslash" unicode="&#x141;" horiz-adv-x="532" 
d="M18 215l-31 74l93 38v373h90v-335l189 78l31 -74l-220 -91v-188h347v-90h-437v240z" />
    <glyph glyph-name="lslash" unicode="&#x142;" horiz-adv-x="228" 
d="M-24 266l-27 63l121 50v321h88v-285l103 43l27 -63l-130 -54v-341h-88v305z" />
    <glyph glyph-name="Nacute" unicode="&#x143;" horiz-adv-x="787" 
d="M707 0h-86l-451 547v-547h-90v700h83l454 -551v551h90v-700zM299 821l212 137l40 -64l-213 -133z" />
    <glyph glyph-name="nacute" unicode="&#x144;" horiz-adv-x="577" 
d="M419 0v298q0 65 -29.5 99.5t-86.5 34.5q-81 0 -118 -59q-29 -46 -29 -140v-233h-86v500h83v-66q56 78 163 78q96 0 143.5 -58.5t47.5 -159.5v-294h-88zM162 641l212 137l40 -64l-213 -133z" />
    <glyph glyph-name="Ncommaaccent" unicode="&#x145;" horiz-adv-x="787" 
d="M707 0h-86l-451 547v-547h-90v700h83l454 -551v551h90v-700zM331 -274l49 86q-23 7 -37 26.5t-14 40.5q0 28 20 49.5t49 21.5q30 0 50.5 -21.5t20.5 -49.5q0 -14 -11 -34l-81 -145z" />
    <glyph glyph-name="ncommaaccent" unicode="&#x146;" horiz-adv-x="577" 
d="M419 0v298q0 65 -29.5 99.5t-86.5 34.5q-81 0 -118 -59q-29 -46 -29 -140v-233h-86v500h83v-66q56 78 163 78q96 0 143.5 -58.5t47.5 -159.5v-294h-88zM220 -274l49 86q-23 7 -37 26.5t-14 40.5q0 28 20 49.5t49 21.5q30 0 50.5 -21.5t20.5 -49.5q0 -14 -11 -34l-81 -145
z" />
    <glyph glyph-name="Ncaron" unicode="&#x147;" horiz-adv-x="787" 
d="M707 0h-86l-451 547v-547h-90v700h83l454 -551v551h90v-700zM290 958l129 -112l129 112l47 -52l-176 -151l-176 151z" />
    <glyph glyph-name="ncaron" unicode="&#x148;" horiz-adv-x="577" 
d="M419 0v298q0 65 -29.5 99.5t-86.5 34.5q-81 0 -118 -59q-29 -46 -29 -140v-233h-86v500h83v-66q56 78 163 78q96 0 143.5 -58.5t47.5 -159.5v-294h-88zM159 778l129 -112l129 112l47 -52l-176 -151l-176 151z" />
    <glyph glyph-name="Eng" unicode="&#x14a;" horiz-adv-x="787" 
d="M707 -26q0 -176 -153 -176q-23 0 -63 5v78q37 -3 52 -3q39 0 57.5 21.5t18.5 74.5v28l-449 545v-547h-90v700h83l454 -551v551h90v-726z" />
    <glyph glyph-name="eng" unicode="&#x14b;" horiz-adv-x="572" 
d="M414 -31v329q0 65 -28.5 99.5t-82.5 34.5q-81 0 -118 -59q-29 -46 -29 -140v-233h-86v500h83v-66q56 78 163 78q93 0 139.5 -58.5t46.5 -159.5v-325q0 -171 -143 -171q-23 0 -63 5v78q38 -3 52 -3q34 0 50 20t16 71z" />
    <glyph glyph-name="Omacron" unicode="&#x14c;" horiz-adv-x="798" 
d="M399 700q150 0 249.5 -100t99.5 -250t-99.5 -250t-249.5 -100q-149 0 -249 100t-100 250t100 250t249 100zM399 90q112 0 185.5 74t73.5 186t-73.5 186t-185.5 74t-185.5 -74t-73.5 -186t73.5 -186t185.5 -74zM249 792v75h300v-75h-300z" />
    <glyph glyph-name="omacron" unicode="&#x14d;" horiz-adv-x="584" 
d="M292 512q109 0 185.5 -76.5t76.5 -185.5t-76.5 -185.5t-185.5 -76.5t-185.5 76.5t-76.5 185.5t76.5 185.5t185.5 76.5zM292 71q74 0 123.5 51.5t49.5 127.5t-49.5 127.5t-123.5 51.5t-123.5 -51.5t-49.5 -127.5t49.5 -127.5t123.5 -51.5zM142 612v75h300v-75h-300z" />
    <glyph glyph-name="Obreve" unicode="&#x14e;" horiz-adv-x="798" 
d="M399 700q150 0 249.5 -100t99.5 -250t-99.5 -250t-249.5 -100q-149 0 -249 100t-100 250t100 250t249 100zM399 90q112 0 185.5 74t73.5 186t-73.5 186t-185.5 74t-185.5 -74t-73.5 -186t73.5 -186t185.5 -74zM399 758q-66 0 -104 42t-38 111h73q0 -81 69 -81t69 81h73
q0 -69 -38 -111t-104 -42z" />
    <glyph glyph-name="obreve" unicode="&#x14f;" horiz-adv-x="584" 
d="M292 512q109 0 185.5 -76.5t76.5 -185.5t-76.5 -185.5t-185.5 -76.5t-185.5 76.5t-76.5 185.5t76.5 185.5t185.5 76.5zM292 71q74 0 123.5 51.5t49.5 127.5t-49.5 127.5t-123.5 51.5t-123.5 -51.5t-49.5 -127.5t49.5 -127.5t123.5 -51.5zM292 578q-66 0 -104 42t-38 111
h73q0 -81 69 -81t69 81h73q0 -69 -38 -111t-104 -42z" />
    <glyph glyph-name="Ohungarumlaut" unicode="&#x150;" horiz-adv-x="798" 
d="M399 700q150 0 249.5 -100t99.5 -250t-99.5 -250t-249.5 -100q-149 0 -249 100t-100 250t100 250t249 100zM399 90q112 0 185.5 74t73.5 186t-73.5 186t-185.5 74t-185.5 -74t-73.5 -186t73.5 -186t185.5 -74zM393 783l111 165l61 -41l-113 -163zM240 793l111 165l61 -41
l-113 -163z" />
    <glyph glyph-name="ohungarumlaut" unicode="&#x151;" horiz-adv-x="584" 
d="M292 512q109 0 185.5 -76.5t76.5 -185.5t-76.5 -185.5t-185.5 -76.5t-185.5 76.5t-76.5 185.5t76.5 185.5t185.5 76.5zM292 71q74 0 123.5 51.5t49.5 127.5t-49.5 127.5t-123.5 51.5t-123.5 -51.5t-49.5 -127.5t49.5 -127.5t123.5 -51.5zM282 603l111 165l61 -41
l-113 -163zM129 613l111 165l61 -41l-113 -163z" />
    <glyph glyph-name="OE" unicode="&#x152;" horiz-adv-x="1143" 
d="M658 0v110q-100 -110 -259 -110q-149 0 -249 100t-100 250t100 250t249 100q157 0 259 -110v110h430v-90h-340v-215h340v-90h-340v-215h340v-90h-430zM399 90q112 0 185.5 74t73.5 186t-73.5 186t-185.5 74t-185.5 -74t-73.5 -186t73.5 -186t185.5 -74z" />
    <glyph glyph-name="oe" unicode="&#x153;" horiz-adv-x="947" 
d="M844 149l47 -70q-43 -45 -87.5 -68t-114.5 -23q-136 0 -198 108q-72 -108 -207 -108q-110 0 -182 74.5t-72 187.5t72 187.5t182 74.5q136 0 207 -110q63 110 198 110q106 0 169 -75t64 -189v-26h-383q3 -75 42.5 -114.5t107.5 -39.5q51 0 85.5 21t69.5 60zM284 71
q77 0 122.5 49.5t45.5 129.5t-45.5 129.5t-122.5 49.5t-122.5 -49.5t-45.5 -129.5q0 -76 48 -127.5t120 -51.5zM545 291h284q-7 66 -42.5 103.5t-97.5 37.5q-124 0 -144 -141z" />
    <glyph glyph-name="Racute" unicode="&#x154;" horiz-adv-x="673" 
d="M170 228v-228h-90v700h269q102 0 169 -67t67 -169q0 -70 -33.5 -125.5t-90.5 -84.5l207 -254h-117l-186 228h-195zM254 368l69 58l78 -99q42 16 68 53t26 84q0 63 -42.5 104.5t-103.5 41.5h-179v-292h124zM177 821l212 137l40 -64l-213 -133z" />
    <glyph glyph-name="racute" unicode="&#x155;" horiz-adv-x="374" 
d="M354 508l-1 -90q-21 5 -50 5q-79 0 -115 -51q-32 -46 -32 -139v-233h-86v500h83v-75q49 88 151 88zM97 641l212 137l40 -64l-213 -133z" />
    <glyph glyph-name="Rcommaaccent" unicode="&#x156;" horiz-adv-x="673" 
d="M170 228v-228h-90v700h269q102 0 169 -67t67 -169q0 -70 -33.5 -125.5t-90.5 -84.5l207 -254h-117l-186 228h-195zM254 368l69 58l78 -99q42 16 68 53t26 84q0 63 -42.5 104.5t-103.5 41.5h-179v-292h124zM274 -274l49 86q-23 7 -37 26.5t-14 40.5q0 28 20 49.5t49 21.5
q30 0 50.5 -21.5t20.5 -49.5q0 -14 -11 -34l-81 -145z" />
    <glyph glyph-name="rcommaaccent" unicode="&#x157;" horiz-adv-x="374" 
d="M354 508l-1 -90q-21 5 -50 5q-79 0 -115 -51q-32 -46 -32 -139v-233h-86v500h83v-75q49 88 151 88zM71 -274l49 86q-23 7 -37 26.5t-14 40.5q0 28 20 49.5t49 21.5q30 0 50.5 -21.5t20.5 -49.5q0 -14 -11 -34l-81 -145z" />
    <glyph glyph-name="Rcaron" unicode="&#x158;" horiz-adv-x="673" 
d="M170 228v-228h-90v700h269q102 0 169 -67t67 -169q0 -70 -33.5 -125.5t-90.5 -84.5l207 -254h-117l-186 228h-195zM254 368l69 58l78 -99q42 16 68 53t26 84q0 63 -42.5 104.5t-103.5 41.5h-179v-292h124zM168 958l129 -112l129 112l47 -52l-176 -151l-176 151z" />
    <glyph glyph-name="rcaron" unicode="&#x159;" horiz-adv-x="374" 
d="M354 508l-1 -90q-21 5 -50 5q-79 0 -115 -51q-32 -46 -32 -139v-233h-86v500h83v-75q49 88 151 88zM58 778l129 -112l129 112l47 -52l-176 -151l-176 151z" />
    <glyph glyph-name="Sacute" unicode="&#x15a;" horiz-adv-x="569" 
d="M504 531l-85 -35q-16 57 -52.5 85.5t-83.5 28.5q-52 0 -86 -30.5t-34 -74.5q0 -21 9.5 -38t21 -27.5t33 -20t35 -14t38.5 -11.5q89 -26 142 -72t53 -128q0 -91 -63.5 -142.5t-150.5 -51.5q-73 0 -132.5 40.5t-83.5 126.5l79 42q33 -119 138 -119q52 0 87.5 28.5
t35.5 75.5q0 34 -22.5 59t-45.5 35t-56 19q-33 10 -52.5 16.5t-53 23.5t-53 36t-34.5 51t-15 71q0 87 63 141t149 54q77 0 136.5 -46t82.5 -123zM178 821l212 137l40 -64l-213 -133z" />
    <glyph glyph-name="sacute" unicode="&#x15b;" horiz-adv-x="467" 
d="M35 105l71 45q36 -82 131 -82q47 0 78 19.5t31 51.5q0 17 -9 29.5t-28.5 21t-34.5 12.5t-43 10q-31 7 -52 12.5t-49 17.5t-45 26.5t-29 38t-12 52.5q0 66 53 109.5t141 43.5q136 0 194 -108l-71 -45q-37 73 -127 73q-47 0 -75.5 -20.5t-28.5 -50.5q0 -29 27 -42t88 -27
q92 -21 139 -53t47 -96q0 -71 -55 -113t-140 -42q-68 0 -121 29t-80 88zM129 641l212 137l40 -64l-213 -133z" />
    <glyph glyph-name="Scircumflex" unicode="&#x15c;" horiz-adv-x="569" 
d="M504 531l-85 -35q-16 57 -52.5 85.5t-83.5 28.5q-52 0 -86 -30.5t-34 -74.5q0 -21 9.5 -38t21 -27.5t33 -20t35 -14t38.5 -11.5q89 -26 142 -72t53 -128q0 -91 -63.5 -142.5t-150.5 -51.5q-73 0 -132.5 40.5t-83.5 126.5l79 42q33 -119 138 -119q52 0 87.5 28.5
t35.5 75.5q0 34 -22.5 59t-45.5 35t-56 19q-33 10 -52.5 16.5t-53 23.5t-53 36t-34.5 51t-15 71q0 87 63 141t149 54q77 0 136.5 -46t82.5 -123zM298 867l-129 -112l-47 52l176 151l176 -151l-47 -52z" />
    <glyph glyph-name="scircumflex" unicode="&#x15d;" horiz-adv-x="467" 
d="M35 105l71 45q36 -82 131 -82q47 0 78 19.5t31 51.5q0 17 -9 29.5t-28.5 21t-34.5 12.5t-43 10q-31 7 -52 12.5t-49 17.5t-45 26.5t-29 38t-12 52.5q0 66 53 109.5t141 43.5q136 0 194 -108l-71 -45q-37 73 -127 73q-47 0 -75.5 -20.5t-28.5 -50.5q0 -29 27 -42t88 -27
q92 -21 139 -53t47 -96q0 -71 -55 -113t-140 -42q-68 0 -121 29t-80 88zM244 687l-129 -112l-47 52l176 151l176 -151l-47 -52z" />
    <glyph glyph-name="Scedilla" unicode="&#x15e;" horiz-adv-x="569" 
d="M504 531l-85 -35q-16 57 -52.5 85.5t-83.5 28.5q-52 0 -86 -30.5t-34 -74.5q0 -21 9.5 -38t21 -27.5t33 -20t35 -14t38.5 -11.5q89 -26 142 -72t53 -128q0 -75 -44.5 -123.5t-112.5 -64.5q35 -44 35 -87q0 -41 -25 -63.5t-62 -22.5q-27 0 -51 10v58q25 -7 38 -7
q32 0 32 34q0 31 -30 72q-71 2 -128.5 42.5t-81.5 124.5l79 42q33 -119 138 -119q52 0 87.5 28.5t35.5 75.5q0 34 -22.5 59t-45.5 35t-56 19q-33 10 -52.5 16.5t-53 23.5t-53 36t-34.5 51t-15 71q0 87 63 141t149 54q77 0 136.5 -46t82.5 -123z" />
    <glyph glyph-name="scedilla" unicode="&#x15f;" horiz-adv-x="467" 
d="M35 105l71 45q36 -82 131 -82q47 0 78 19.5t31 51.5q0 17 -9 29.5t-28.5 21t-34.5 12.5t-43 10q-31 7 -52 12.5t-49 17.5t-45 26.5t-29 38t-12 52.5q0 66 53 109.5t141 43.5q136 0 194 -108l-71 -45q-37 73 -127 73q-47 0 -75.5 -20.5t-28.5 -50.5q0 -29 27 -42t88 -27
q92 -21 139 -53t47 -96q0 -57 -35.5 -95.5t-95.5 -52.5q27 -38 27 -76q0 -41 -25 -63.5t-62 -22.5q-27 0 -51 10v58q25 -7 38 -7q32 0 32 34q0 27 -22 60h-1q-68 0 -121 29t-80 88z" />
    <glyph glyph-name="Scaron" unicode="&#x160;" horiz-adv-x="569" 
d="M504 531l-85 -35q-16 57 -52.5 85.5t-83.5 28.5q-52 0 -86 -30.5t-34 -74.5q0 -21 9.5 -38t21 -27.5t33 -20t35 -14t38.5 -11.5q89 -26 142 -72t53 -128q0 -91 -63.5 -142.5t-150.5 -51.5q-73 0 -132.5 40.5t-83.5 126.5l79 42q33 -119 138 -119q52 0 87.5 28.5
t35.5 75.5q0 34 -22.5 59t-45.5 35t-56 19q-33 10 -52.5 16.5t-53 23.5t-53 36t-34.5 51t-15 71q0 87 63 141t149 54q77 0 136.5 -46t82.5 -123zM169 958l129 -112l129 112l47 -52l-176 -151l-176 151z" />
    <glyph glyph-name="scaron" unicode="&#x161;" horiz-adv-x="467" 
d="M35 105l71 45q36 -82 131 -82q47 0 78 19.5t31 51.5q0 17 -9 29.5t-28.5 21t-34.5 12.5t-43 10q-31 7 -52 12.5t-49 17.5t-45 26.5t-29 38t-12 52.5q0 66 53 109.5t141 43.5q136 0 194 -108l-71 -45q-37 73 -127 73q-47 0 -75.5 -20.5t-28.5 -50.5q0 -29 27 -42t88 -27
q92 -21 139 -53t47 -96q0 -71 -55 -113t-140 -42q-68 0 -121 29t-80 88zM104 778l129 -112l129 112l47 -52l-176 -151l-176 151z" />
    <glyph glyph-name="Tcommaaccent" unicode="&#x162;" horiz-adv-x="651" 
d="M646 700v-90h-276v-610h-90v610h-275v90h641zM257 -274l49 86q-23 7 -37 26.5t-14 40.5q0 28 20 49.5t49 21.5q30 0 50.5 -21.5t20.5 -49.5q0 -14 -11 -34l-81 -145z" />
    <glyph glyph-name="tcommaaccent" unicode="&#x163;" horiz-adv-x="377" 
d="M114 140v285h-99v75h99v142h86v-142h137v-75h-137v-290q0 -61 57 -61q31 0 85 6v-75q-48 -10 -90 -10q-70 0 -104 33.5t-34 111.5zM156 -274l49 86q-23 7 -37 26.5t-14 40.5q0 28 20 49.5t49 21.5q30 0 50.5 -21.5t20.5 -49.5q0 -14 -11 -34l-81 -145z" />
    <glyph glyph-name="Tcaron" unicode="&#x164;" horiz-adv-x="651" 
d="M646 700v-90h-276v-610h-90v610h-275v90h641zM196 958l129 -112l129 112l47 -52l-176 -151l-176 151z" />
    <glyph glyph-name="tcaron" unicode="&#x165;" horiz-adv-x="543" 
d="M114 140v285h-99v75h99v142h86v-142h137v-75h-137v-290q0 -61 57 -61q31 0 85 6v-75q-48 -10 -90 -10q-70 0 -104 33.5t-34 111.5zM385 489l49 86q-23 7 -37 26.5t-14 40.5q0 28 20 49.5t49 21.5q30 0 50.5 -21.5t20.5 -49.5q0 -14 -11 -34l-81 -145z" />
    <glyph glyph-name="Tbar" unicode="&#x166;" horiz-adv-x="651" 
d="M646 700v-90h-276v-190h125v-90h-125v-330h-90v330h-125v90h125v190h-275v90h641z" />
    <glyph glyph-name="tbar" unicode="&#x167;" horiz-adv-x="377" 
d="M47 298v77h67v50h-99v75h99v142h86v-142h137v-75h-137v-50h99v-77h-99v-163q0 -61 57 -61q31 0 85 6v-75q-48 -10 -90 -10q-70 0 -104 33.5t-34 111.5v158h-67z" />
    <glyph glyph-name="Utilde" unicode="&#x168;" horiz-adv-x="780" 
d="M70 320v380h90v-380q0 -98 66 -164t164 -66t164 66t66 164v380h90v-380q0 -136 -92 -228t-228 -92t-228 92t-92 228zM450 847q19 0 56 39l48 -46q-58 -69 -106 -69q-27 0 -65.5 23.5t-50.5 23.5q-19 0 -56 -39l-48 46q58 69 106 69q27 0 65.5 -23.5t50.5 -23.5z" />
    <glyph glyph-name="utilde" unicode="&#x169;" horiz-adv-x="570" 
d="M158 500v-296q0 -65 24.5 -100.5t85.5 -35.5q81 0 117 59q29 46 29 140v233h86v-500h-83v72q-59 -84 -164 -84q-183 0 -183 216v296h88zM344 667q19 0 56 39l48 -46q-58 -69 -106 -69q-27 0 -65.5 23.5t-50.5 23.5q-19 0 -56 -39l-48 46q58 69 106 69q27 0 65.5 -23.5
t50.5 -23.5z" />
    <glyph glyph-name="Umacron" unicode="&#x16a;" horiz-adv-x="780" 
d="M70 320v380h90v-380q0 -98 66 -164t164 -66t164 66t66 164v380h90v-380q0 -136 -92 -228t-228 -92t-228 92t-92 228zM240 792v75h300v-75h-300z" />
    <glyph glyph-name="umacron" unicode="&#x16b;" horiz-adv-x="570" 
d="M158 500v-296q0 -65 24.5 -100.5t85.5 -35.5q81 0 117 59q29 46 29 140v233h86v-500h-83v72q-59 -84 -164 -84q-183 0 -183 216v296h88zM135 612v75h300v-75h-300z" />
    <glyph glyph-name="Ubreve" unicode="&#x16c;" horiz-adv-x="780" 
d="M70 320v380h90v-380q0 -98 66 -164t164 -66t164 66t66 164v380h90v-380q0 -136 -92 -228t-228 -92t-228 92t-92 228zM390 758q-66 0 -104 42t-38 111h73q0 -81 69 -81t69 81h73q0 -69 -38 -111t-104 -42z" />
    <glyph glyph-name="ubreve" unicode="&#x16d;" horiz-adv-x="570" 
d="M158 500v-296q0 -65 24.5 -100.5t85.5 -35.5q81 0 117 59q29 46 29 140v233h86v-500h-83v72q-59 -84 -164 -84q-183 0 -183 216v296h88zM285 578q-66 0 -104 42t-38 111h73q0 -81 69 -81t69 81h73q0 -69 -38 -111t-104 -42z" />
    <glyph glyph-name="Uring" unicode="&#x16e;" horiz-adv-x="780" 
d="M70 320v380h90v-380q0 -98 66 -164t164 -66t164 66t66 164v380h90v-380q0 -136 -92 -228t-228 -92t-228 92t-92 228zM390 808q24 0 38.5 15.5t14.5 39.5t-14.5 39.5t-38.5 15.5t-38.5 -15.5t-14.5 -39.5t14.5 -39.5t38.5 -15.5zM390 753q-48 0 -79 31t-31 79t31 79.5
t79 31.5t79 -31.5t31 -79.5t-31 -79t-79 -31z" />
    <glyph glyph-name="uring" unicode="&#x16f;" horiz-adv-x="570" 
d="M158 500v-296q0 -65 24.5 -100.5t85.5 -35.5q81 0 117 59q29 46 29 140v233h86v-500h-83v72q-59 -84 -164 -84q-183 0 -183 216v296h88zM285 628q24 0 38.5 15.5t14.5 39.5t-14.5 39.5t-38.5 15.5t-38.5 -15.5t-14.5 -39.5t14.5 -39.5t38.5 -15.5zM285 573q-48 0 -79 31
t-31 79t31 79.5t79 31.5t79 -31.5t31 -79.5t-31 -79t-79 -31z" />
    <glyph glyph-name="Uhungarumlaut" unicode="&#x170;" horiz-adv-x="780" 
d="M70 320v380h90v-380q0 -98 66 -164t164 -66t164 66t66 164v380h90v-380q0 -136 -92 -228t-228 -92t-228 92t-92 228zM384 783l111 165l61 -41l-113 -163zM231 793l111 165l61 -41l-113 -163z" />
    <glyph glyph-name="uhungarumlaut" unicode="&#x171;" horiz-adv-x="570" 
d="M158 500v-296q0 -65 24.5 -100.5t85.5 -35.5q81 0 117 59q29 46 29 140v233h86v-500h-83v72q-59 -84 -164 -84q-183 0 -183 216v296h88zM275 603l111 165l61 -41l-113 -163zM122 613l111 165l61 -41l-113 -163z" />
    <glyph glyph-name="Uogonek" unicode="&#x172;" horiz-adv-x="780" 
d="M70 320v380h90v-380q0 -98 66 -164t164 -66t164 66t66 164v380h90v-380q0 -124 -77 -212t-197 -105q-32 -41 -32 -75t31 -34q13 0 38 7v-58q-24 -10 -51 -10q-37 0 -62 22.5t-25 63.5q0 42 31 82q-127 8 -211.5 98.5t-84.5 220.5z" />
    <glyph glyph-name="uogonek" unicode="&#x173;" horiz-adv-x="570" 
d="M158 500v-296q0 -65 24.5 -100.5t85.5 -35.5q81 0 117 59q29 46 29 140v233h86v-470h19q-18 -20 -19 -22v-8h-7q-30 -39 -30 -72q0 -34 31 -34q14 0 38 7v-58q-24 -10 -51 -10q-37 0 -62 22.5t-25 63.5q0 42 30 81h-7v72q-59 -84 -164 -84q-183 0 -183 216v296h88z" />
    <glyph glyph-name="Wcircumflex" unicode="&#x174;" horiz-adv-x="1220" 
d="M567 700h86l243 -546l217 546h97l-278 -700h-66l-256 574l-256 -574h-66l-278 700h97l217 -546zM610 867l-129 -112l-47 52l176 151l176 -151l-47 -52z" />
    <glyph glyph-name="wcircumflex" unicode="&#x175;" horiz-adv-x="866" 
d="M402 500h61l154 -371l146 371h93l-206 -500h-66l-151 359l-152 -359h-66l-205 500h93l145 -371zM433 687l-129 -112l-47 52l176 151l176 -151l-47 -52z" />
    <glyph glyph-name="Ycircumflex" unicode="&#x176;" horiz-adv-x="662" 
d="M331 388l216 312h110l-281 -405v-295h-90v295l-281 405h110zM331 867l-129 -112l-47 52l176 151l176 -151l-47 -52z" />
    <glyph glyph-name="ycircumflex" unicode="&#x177;" horiz-adv-x="525" 
d="M10 500h104l159 -332l156 332h91l-323 -700h-93l123 268zM262 687l-129 -112l-47 52l176 151l176 -151l-47 -52z" />
    <glyph glyph-name="Ydieresis" unicode="&#x178;" horiz-adv-x="662" 
d="M331 388l216 312h110l-281 -405v-295h-90v295l-281 405h110zM147 825q0 29 19.5 48.5t48.5 19.5t48.5 -19.5t19.5 -48.5t-19.5 -48.5t-48.5 -19.5t-48.5 19.5t-19.5 48.5zM379 825q0 29 19.5 48.5t48.5 19.5t48.5 -19.5t19.5 -48.5t-19.5 -48.5t-48.5 -19.5t-48.5 19.5
t-19.5 48.5z" />
    <glyph glyph-name="Zacute" unicode="&#x179;" horiz-adv-x="662" 
d="M612 631l-428 -541h428v-90h-562v69l428 541h-428v90h562v-69zM224 821l212 137l40 -64l-213 -133z" />
    <glyph glyph-name="zacute" unicode="&#x17a;" horiz-adv-x="454" 
d="M414 423l-278 -343h288v-80h-394v77l278 343h-270v80h376v-77zM121 641l212 137l40 -64l-213 -133z" />
    <glyph glyph-name="Zdotaccent" unicode="&#x17b;" horiz-adv-x="662" 
d="M612 631l-428 -541h428v-90h-562v69l428 541h-428v90h562v-69zM276 825q0 29 20 48.5t48 19.5t48 -19.5t20 -48.5t-20 -48.5t-48 -19.5t-48 19.5t-20 48.5z" />
    <glyph glyph-name="zdotaccent" unicode="&#x17c;" horiz-adv-x="454" 
d="M414 423l-278 -343h288v-80h-394v77l278 343h-270v80h376v-77zM164 645q0 29 20 48.5t48 19.5t48 -19.5t20 -48.5t-20 -48.5t-48 -19.5t-48 19.5t-20 48.5z" />
    <glyph glyph-name="Zcaron" unicode="&#x17d;" horiz-adv-x="662" 
d="M612 631l-428 -541h428v-90h-562v69l428 541h-428v90h562v-69zM215 958l129 -112l129 112l47 -52l-176 -151l-176 151z" />
    <glyph glyph-name="zcaron" unicode="&#x17e;" horiz-adv-x="454" 
d="M414 423l-278 -343h288v-80h-394v77l278 343h-270v80h376v-77zM108 778l129 -112l129 112l47 -52l-176 -151l-176 151z" />
    <glyph glyph-name="longs" unicode="&#x17f;" horiz-adv-x="360" 
d="M15 425v75h92v28q0 181 161 181q32 0 77 -7v-78q-35 5 -66 5q-45 0 -65.5 -22t-20.5 -79v-528h-86v425h-92z" />
    <glyph glyph-name="florin" unicode="&#x192;" horiz-adv-x="360" 
d="M15 425v75h92v28q0 181 161 181q32 0 77 -7v-78q-35 5 -66 5q-45 0 -65.5 -22t-20.5 -79v-28h145v-75h-145v-457q0 -171 -141 -171q-23 0 -63 5v78q39 -3 52 -3q34 0 50 20t16 71v457h-92z" />
    <glyph glyph-name="Aringacute" unicode="&#x1fa;" horiz-adv-x="766" 
d="M756 0h-99l-56 123h-436l-56 -123h-99l326 700h94zM383 591l-175 -378h350zM383 808q24 0 38.5 15.5t14.5 39.5t-14.5 39.5t-38.5 15.5t-38.5 -15.5t-14.5 -39.5t14.5 -39.5t38.5 -15.5zM383 753q-48 0 -79 31t-31 79t31 79.5t79 31.5t79 -31.5t31 -79.5t-31 -79t-79 -31
zM263 1055l212 137l40 -64l-213 -133z" />
    <glyph glyph-name="aringacute" unicode="&#x1fb;" horiz-adv-x="530" 
d="M379 350v11q0 33 -29.5 53.5t-79.5 20.5q-113 0 -129 -91l-78 42q32 126 199 126q102 0 152.5 -49t50.5 -138v-325h-86v71q-24 -37 -67 -59t-94 -22q-81 0 -127 43t-46 110q0 69 43 109.5t109 46.5l145 14q17 1 27 11.5t10 25.5zM379 239l-167 -20q-79 -10 -79 -76
q0 -33 24.5 -52.5t73.5 -19.5q60 0 104 41t44 90v37zM265 628q24 0 38.5 15.5t14.5 39.5t-14.5 39.5t-38.5 15.5t-38.5 -15.5t-14.5 -39.5t14.5 -39.5t38.5 -15.5zM265 573q-48 0 -79 31t-31 79t31 79.5t79 31.5t79 -31.5t31 -79.5t-31 -79t-79 -31zM139 879l212 137l40 -64
l-213 -133z" />
    <glyph glyph-name="AEacute" unicode="&#x1fc;" horiz-adv-x="993" 
d="M938 0h-431v123h-299l-87 -123h-116l507 700h426v-90h-340v-215h340v-90h-340v-215h340v-90zM508 537l-234 -324h234v324zM623 821l212 137l40 -64l-213 -133z" />
    <glyph glyph-name="aeacute" unicode="&#x1fd;" horiz-adv-x="865" 
d="M763 149l46 -70q-39 -45 -85 -68t-117 -23q-126 0 -192 104q-17 -23 -29.5 -36.5t-35.5 -31t-55 -26t-74 -8.5q-79 0 -127.5 43.5t-48.5 110.5q0 68 44.5 108t108.5 46l144 14q17 1 27 12t10 25v12q0 34 -29 54t-81 20q-113 0 -129 -92l-78 42q33 127 198 127
q128 0 174 -80q60 80 173 80q105 0 168.5 -74t64.5 -188v-26h-383q2 -72 44 -114t106 -42q91 0 156 81zM379 238l-166 -19q-39 -4 -59.5 -25.5t-20.5 -49.5q0 -34 27 -53.5t76 -19.5q60 0 101.5 39t41.5 92v36zM464 293h283q-5 63 -42 101t-98 38t-97.5 -37t-45.5 -102z
M315 641l212 137l40 -64l-213 -133z" />
    <glyph glyph-name="Oslashacute" unicode="&#x1fe;" horiz-adv-x="798" 
d="M81 29l64 75q-95 100 -95 246q0 150 100 250t249 100q113 0 201 -60l64 76l53 -46l-64 -75q95 -100 95 -245q0 -150 -99.5 -250t-249.5 -100q-113 0 -200 59l-64 -75zM140 350q0 -104 64 -176l337 397q-62 39 -142 39q-112 0 -185.5 -74t-73.5 -186zM399 90
q112 0 185.5 74t73.5 186q0 103 -64 175l-336 -396q62 -39 141 -39zM279 821l212 137l40 -64l-213 -133z" />
    <glyph glyph-name="oslashacute" unicode="&#x1ff;" horiz-adv-x="584" 
d="M166 641l212 137l40 -64l-213 -133zM58 29l39 46q-67 75 -67 176q0 109 76.5 185.5t185.5 76.5q78 0 142 -42l38 45l53 -46l-38 -45q67 -73 67 -174q0 -109 -76.5 -185.5t-185.5 -76.5q-78 0 -141 41l-39 -46zM119 251q0 -64 34 -110l226 266q-41 23 -87 23
q-74 0 -123.5 -51.5t-49.5 -127.5zM292 72q74 0 123.5 51.5t49.5 127.5q0 59 -34 108l-226 -265q39 -22 87 -22z" />
    <glyph glyph-name="Scommaaccent" unicode="&#x218;" horiz-adv-x="569" 
d="M504 531l-85 -35q-16 57 -52.5 85.5t-83.5 28.5q-52 0 -86 -30.5t-34 -74.5q0 -21 9.5 -38t21 -27.5t33 -20t35 -14t38.5 -11.5q89 -26 142 -72t53 -128q0 -91 -63.5 -142.5t-150.5 -51.5q-73 0 -132.5 40.5t-83.5 126.5l79 42q33 -119 138 -119q52 0 87.5 28.5
t35.5 75.5q0 34 -22.5 59t-45.5 35t-56 19q-33 10 -52.5 16.5t-53 23.5t-53 36t-34.5 51t-15 71q0 87 63 141t149 54q77 0 136.5 -46t82.5 -123zM207 -274l49 86q-23 7 -37 26.5t-14 40.5q0 28 20 49.5t49 21.5q30 0 50.5 -21.5t20.5 -49.5q0 -14 -11 -34l-81 -145z" />
    <glyph glyph-name="scommaaccent" unicode="&#x219;" horiz-adv-x="467" 
d="M35 105l71 45q36 -82 131 -82q47 0 78 19.5t31 51.5q0 17 -9 29.5t-28.5 21t-34.5 12.5t-43 10q-31 7 -52 12.5t-49 17.5t-45 26.5t-29 38t-12 52.5q0 66 53 109.5t141 43.5q136 0 194 -108l-71 -45q-37 73 -127 73q-47 0 -75.5 -20.5t-28.5 -50.5q0 -29 27 -42t88 -27
q92 -21 139 -53t47 -96q0 -71 -55 -113t-140 -42q-68 0 -121 29t-80 88zM165 -274l49 86q-23 7 -37 26.5t-14 40.5q0 28 20 49.5t49 21.5q30 0 50.5 -21.5t20.5 -49.5q0 -14 -11 -34l-81 -145z" />
    <glyph glyph-name="uni021A" unicode="&#x21a;" horiz-adv-x="651" 
d="M646 700v-90h-276v-603q36 -44 36 -88q0 -41 -25 -63.5t-62 -22.5q-27 0 -51 10v58q24 -7 38 -7q32 0 32 34q0 31 -30 72h-28v610h-275v90h641z" />
    <glyph glyph-name="uni021B" unicode="&#x21b;" horiz-adv-x="377" 
d="M114 140v285h-99v75h99v142h86v-142h137v-75h-137v-290q0 -61 57 -61q31 0 85 6v-75q-48 -10 -90 -10q-70 0 -104 33.5t-34 111.5zM142 -274l49 86q-23 7 -37 26.5t-14 40.5q0 28 20 49.5t49 21.5q30 0 50.5 -21.5t20.5 -49.5q0 -14 -11 -34l-81 -145z" />
    <glyph glyph-name="hsuperior" unicode="&#x2b0;" horiz-adv-x="390" 
d="M143 503q-15 -23 -15 -73v-140h-68v420h68v-149q39 36 90 36q57 0 87 -35t30 -95v-177h-69v180q0 62 -61 62q-43 0 -62 -29z" />
    <glyph glyph-name="jsuperior" unicode="&#x2b2;" horiz-adv-x="210" 
d="M5 170v65q41 0 56 11.5t15 34.5v309h69v-309q0 -58 -32 -84.5t-108 -26.5zM61 669q0 20 14 34t35 14t35.5 -14t14.5 -34t-14.5 -34t-35.5 -14t-35 14t-14 34z" />
    <glyph glyph-name="wsuperior" unicode="&#x2b7;" horiz-adv-x="570" 
d="M261 590h47l86 -192l81 192h75l-130 -300h-51l-84 186q-15 -33 -44.5 -97t-40.5 -89h-50l-130 300h75l80 -192z" />
    <glyph glyph-name="ysuperior" unicode="&#x2b8;" horiz-adv-x="371" 
d="M20 590h82l89 -173l87 173h73l-204 -420h-75l81 168z" />
    <glyph glyph-name="apostrophemod" unicode="&#x2bc;" horiz-adv-x="214" 
d="M30 445l68 120q-24 7 -39.5 28t-15.5 44q0 29 22 52.5t53 23.5q35 0 55.5 -22.5t20.5 -53.5q0 -16 -12 -37l-102 -183z" />
    <glyph glyph-name="circumflex" unicode="&#x2c6;" horiz-adv-x="372" 
d="M186 687l-129 -112l-47 52l176 151l176 -151l-47 -52z" />
    <glyph glyph-name="caron" unicode="&#x2c7;" horiz-adv-x="372" 
d="M57 778l129 -112l129 112l47 -52l-176 -151l-176 151z" />
    <glyph glyph-name="breve" unicode="&#x2d8;" horiz-adv-x="304" 
d="M152 578q-66 0 -104 42t-38 111h73q0 -81 69 -81t69 81h73q0 -69 -38 -111t-104 -42z" />
    <glyph glyph-name="dotaccent" unicode="&#x2d9;" horiz-adv-x="156" 
d="M10 645q0 29 20 48.5t48 19.5t48 -19.5t20 -48.5t-20 -48.5t-48 -19.5t-48 19.5t-20 48.5z" />
    <glyph glyph-name="ring" unicode="&#x2da;" horiz-adv-x="240" 
d="M120 628q24 0 38.5 15.5t14.5 39.5t-14.5 39.5t-38.5 15.5t-38.5 -15.5t-14.5 -39.5t14.5 -39.5t38.5 -15.5zM120 573q-48 0 -79 31t-31 79t31 79.5t79 31.5t79 -31.5t31 -79.5t-31 -79t-79 -31z" />
    <glyph glyph-name="ogonek" unicode="&#x2db;" horiz-adv-x="158" 
d="M66 30h69q-56 -59 -56 -102q0 -34 31 -34q14 0 38 7v-58q-24 -10 -51 -10q-37 0 -62 22.5t-25 63.5q0 52 56 111z" />
    <glyph glyph-name="tilde" unicode="&#x2dc;" horiz-adv-x="346" 
d="M232 667q19 0 56 39l48 -46q-58 -69 -106 -69q-27 0 -65.5 23.5t-50.5 23.5q-19 0 -56 -39l-48 46q58 69 106 69q27 0 65.5 -23.5t50.5 -23.5z" />
    <glyph glyph-name="hungarumlaut" unicode="&#x2dd;" horiz-adv-x="345" 
d="M163 603l111 165l61 -41l-113 -163zM10 613l111 165l61 -41l-113 -163z" />
    <glyph glyph-name="xsuperior" unicode="&#x2e3;" horiz-adv-x="374" 
d="M229 440l125 -150h-86l-81 99l-81 -99h-86l125 150l-125 150h86l81 -99l81 99h86z" />
    <glyph glyph-name="Delta" unicode="&#x394;" 
d="M684 0h-668l309 745h50zM143 65h416l-208 517z" />
    <glyph glyph-name="Omega" unicode="&#x3a9;" horiz-adv-x="740" 
d="M370 622q-110 0 -182.5 -73t-72.5 -185q0 -173 205 -284v-80h-286v80h130q-144 110 -144 284q0 153 99.5 250.5t250.5 97.5t250.5 -97.5t99.5 -250.5q0 -173 -145 -284h131v-80h-286v80q205 111 205 284q0 112 -72.5 185t-182.5 73z" />
    <glyph glyph-name="mu" unicode="&#x3bc;" 
d="M223 500v-296q0 -65 24.5 -100.5t85.5 -35.5q81 0 117 59q29 46 29 140v233h86v-500h-83v72q-58 -84 -164 -84q-59 0 -98 22v-210h-85v700h88z" />
    <glyph glyph-name="pi" unicode="&#x3c0;" 
d="M626 410h-89v-410h-88v410h-149l-87 -410h-92l87 410q-77 0 -135 -14v74q58 30 140 30h413v-90z" />
    <glyph glyph-name="Wgrave" unicode="&#x1e80;" horiz-adv-x="1220" 
d="M567 700h86l243 -546l217 546h97l-278 -700h-66l-256 574l-256 -574h-66l-278 700h97l217 -546zM527 958l212 -137l-39 -60l-213 133z" />
    <glyph glyph-name="wgrave" unicode="&#x1e81;" horiz-adv-x="866" 
d="M402 500h61l154 -371l146 371h93l-206 -500h-66l-151 359l-152 -359h-66l-205 500h93l145 -371zM347 778l212 -137l-39 -60l-213 133z" />
    <glyph glyph-name="Wacute" unicode="&#x1e82;" horiz-adv-x="1220" 
d="M567 700h86l243 -546l217 546h97l-278 -700h-66l-256 574l-256 -574h-66l-278 700h97l217 -546zM490 821l212 137l40 -64l-213 -133z" />
    <glyph glyph-name="wacute" unicode="&#x1e83;" horiz-adv-x="866" 
d="M402 500h61l154 -371l146 371h93l-206 -500h-66l-151 359l-152 -359h-66l-205 500h93l145 -371zM307 641l212 137l40 -64l-213 -133z" />
    <glyph glyph-name="Wdieresis" unicode="&#x1e84;" horiz-adv-x="1220" 
d="M567 700h86l243 -546l217 546h97l-278 -700h-66l-256 574l-256 -574h-66l-278 700h97l217 -546zM426 825q0 29 20 48.5t48 19.5t48 -19.5t20 -48.5t-20 -48.5t-48 -19.5t-48 19.5t-20 48.5zM658 825q0 29 20 48.5t48 19.5t48 -19.5t20 -48.5t-20 -48.5t-48 -19.5
t-48 19.5t-20 48.5z" />
    <glyph glyph-name="wdieresis" unicode="&#x1e85;" horiz-adv-x="866" 
d="M402 500h61l154 -371l146 371h93l-206 -500h-66l-151 359l-152 -359h-66l-205 500h93l145 -371zM249 645q0 29 19.5 48.5t48.5 19.5t48.5 -19.5t19.5 -48.5t-19.5 -48.5t-48.5 -19.5t-48.5 19.5t-19.5 48.5zM481 645q0 29 19.5 48.5t48.5 19.5t48.5 -19.5t19.5 -48.5
t-19.5 -48.5t-48.5 -19.5t-48.5 19.5t-19.5 48.5z" />
    <glyph glyph-name="Ygrave" unicode="&#x1ef2;" horiz-adv-x="662" 
d="M331 388l216 312h110l-281 -405v-295h-90v295l-281 405h110zM248 958l212 -137l-39 -60l-213 133z" />
    <glyph glyph-name="ygrave" unicode="&#x1ef3;" horiz-adv-x="525" 
d="M10 500h104l159 -332l156 332h91l-323 -700h-93l123 268zM176 778l212 -137l-39 -60l-213 133z" />
    <glyph glyph-name="endash" unicode="&#x2013;" horiz-adv-x="928" 
d="M70 264v90h788v-90h-788z" />
    <glyph glyph-name="emdash" unicode="&#x2014;" horiz-adv-x="1378" 
d="M70 264v90h1238v-90h-1238z" />
    <glyph glyph-name="quoteleft" unicode="&#x2018;" horiz-adv-x="214" 
d="M194 685l-68 -120q24 -7 39.5 -28t15.5 -44q0 -29 -22 -52.5t-53 -23.5q-35 0 -55.5 22.5t-20.5 53.5q0 16 12 37l102 183z" />
    <glyph glyph-name="quoteright" unicode="&#x2019;" horiz-adv-x="214" 
d="M30 445l68 120q-24 7 -39.5 28t-15.5 44q0 29 22 52.5t53 23.5q35 0 55.5 -22.5t20.5 -53.5q0 -16 -12 -37l-102 -183z" />
    <glyph glyph-name="quotesinglbase" unicode="&#x201a;" horiz-adv-x="294" 
d="M70 -120l68 120q-24 7 -39.5 28t-15.5 44q0 29 22 52.5t53 23.5q28 0 52 -24t24 -52q0 -16 -12 -37l-102 -183z" />
    <glyph glyph-name="quotedblleft" unicode="&#x201c;" horiz-adv-x="504" 
d="M444 685l-68 -120q24 -7 39.5 -28t15.5 -44q0 -29 -22 -52.5t-53 -23.5q-28 0 -52 23.5t-24 52.5q0 16 12 37l102 183zM234 685l-68 -120q24 -7 39.5 -28t15.5 -44q0 -29 -22 -52.5t-53 -23.5q-28 0 -52 23.5t-24 52.5q0 16 12 37l102 183z" />
    <glyph glyph-name="quotedblright" unicode="&#x201d;" horiz-adv-x="504" 
d="M60 445l68 120q-24 7 -39.5 28t-15.5 44q0 29 22 52.5t53 23.5q28 0 52 -23.5t24 -52.5q0 -16 -12 -37l-102 -183zM270 445l68 120q-24 7 -39.5 28t-15.5 44q0 29 22 52.5t53 23.5q28 0 52 -23.5t24 -52.5q0 -16 -12 -37l-102 -183z" />
    <glyph glyph-name="quotedblbase" unicode="&#x201e;" horiz-adv-x="504" 
d="M70 -120l68 120q-24 7 -39.5 28t-15.5 44q0 29 22 52.5t53 23.5q28 0 52 -24t24 -52q0 -16 -12 -37l-102 -183zM280 -120l68 120q-24 7 -39.5 28t-15.5 44q0 29 22 52.5t53 23.5q28 0 52 -24t24 -52q0 -16 -12 -37l-102 -183z" />
    <glyph glyph-name="dagger" unicode="&#x2020;" horiz-adv-x="487" 
d="M15 420v80h190v241h77v-241h190v-80h-190v-514h-77v514h-190z" />
    <glyph glyph-name="daggerdbl" unicode="&#x2021;" horiz-adv-x="487" 
d="M15 450v80h190v211h77v-211h190v-80h-190v-223h190v-80h-190v-241h-77v241h-190v80h190v223h-190z" />
    <glyph glyph-name="bullet" unicode="&#x2022;" horiz-adv-x="436" 
d="M94 320q0 53 35.5 88.5t88.5 35.5t88.5 -35.5t35.5 -88.5t-35.5 -88.5t-88.5 -35.5t-88.5 35.5t-35.5 88.5z" />
    <glyph glyph-name="ellipsis" unicode="&#x2026;" horiz-adv-x="969" 
d="M100 78q0 33 22.5 56t55.5 23t56 -23t23 -56t-23 -55.5t-56 -22.5t-55.5 22.5t-22.5 55.5zM406 78q0 33 22.5 56t55.5 23t56 -23t23 -56t-23 -55.5t-56 -22.5t-55.5 22.5t-22.5 55.5zM712 78q0 33 22.5 56t55.5 23t56 -23t23 -56t-23 -55.5t-56 -22.5t-55.5 22.5
t-22.5 55.5z" />
    <glyph glyph-name="perthousand" unicode="&#x2030;" horiz-adv-x="1094" 
d="M123 0l-50 41l523 659l50 -40zM373 141q0 64 45 109.5t109 45.5t109.5 -45.5t45.5 -109.5t-45.5 -109t-109.5 -45t-109 45t-45 109zM439 141q0 -37 25.5 -62.5t62.5 -25.5t62.5 25.5t25.5 62.5t-25.5 62.5t-62.5 25.5t-62.5 -25.5t-25.5 -62.5zM750 141q0 64 45 109.5
t109 45.5t109.5 -45.5t45.5 -109.5t-45.5 -109t-109.5 -45t-109 45t-45 109zM816 141q0 -37 25.5 -62.5t62.5 -25.5t62.5 25.5t25.5 62.5t-25.5 62.5t-62.5 25.5t-62.5 -25.5t-25.5 -62.5zM35 558q0 64 45 109.5t109 45.5t109.5 -45.5t45.5 -109.5t-45.5 -109t-109.5 -45
t-109 45t-45 109zM101 558q0 -37 25.5 -62.5t62.5 -25.5t62.5 25.5t25.5 62.5t-25.5 62.5t-62.5 25.5t-62.5 -25.5t-25.5 -62.5z" />
    <glyph glyph-name="guilsinglleft" unicode="&#x2039;" horiz-adv-x="372" 
d="M282 91l-57 -51l-185 210l185 210l57 -52l-143 -158z" />
    <glyph glyph-name="guilsinglright" unicode="&#x203a;" horiz-adv-x="372" 
d="M147 40l-57 51l143 159l-143 158l57 52l185 -210z" />
    <glyph glyph-name="fraction" unicode="&#x2044;" horiz-adv-x="133" 
d="M-170 0l-50 41l523 659l50 -40z" />
    <glyph glyph-name="zerosuperior" unicode="&#x2070;" horiz-adv-x="506" 
d="M253 790q85 0 143 -59.5t58 -151.5q0 -91 -58 -150t-143 -59t-143 59t-58 150q0 92 58 151.5t143 59.5zM253 441q56 0 92.5 38t36.5 100t-36.5 100.5t-92.5 38.5t-92.5 -38.5t-36.5 -100.5t36.5 -100t92.5 -38zM306 579q0 -21 -15.5 -35.5t-37.5 -14.5t-37 14.5t-15 35.5
t15 36t37 15t37.5 -15t15.5 -36z" />
    <glyph glyph-name="foursuperior" unicode="&#x2074;" horiz-adv-x="462" 
d="M336 522h86v-71h-86v-81h-72v81h-230v61l243 278h59v-268zM264 522v142l-126 -142h126z" />
    <glyph glyph-name="fivesuperior" unicode="&#x2075;" horiz-adv-x="404" 
d="M85 561v229h254v-71h-182v-65q27 3 35 3q66 0 106.5 -40.5t40.5 -104.5q0 -67 -45 -104.5t-110 -37.5q-70 0 -126 46l37 63q47 -38 93 -38q33 0 55.5 19t22.5 54q0 33 -21 52t-60 19q-49 0 -100 -24z" />
    <glyph glyph-name="sixsuperior" unicode="&#x2076;" horiz-adv-x="402" 
d="M205 652q64 0 104.5 -38.5t40.5 -101.5q0 -62 -41 -102t-104 -40q-75 0 -118 59q-29 40 -29 125q0 115 45 176q44 60 121 60q57 0 106 -38l-39 -58q-36 25 -67 25q-36 0 -59 -26q-20 -21 -25 -56q33 15 65 15zM132 512q0 -33 21 -52t52 -19q33 0 53 19.5t20 51.5
t-19.5 50.5t-53.5 18.5q-32 0 -52.5 -19t-20.5 -50z" />
    <glyph glyph-name="sevensuperior" unicode="&#x2077;" horiz-adv-x="373" 
d="M333 790v-60l-191 -360h-82l186 349h-206v71h293z" />
    <glyph glyph-name="eightsuperior" unicode="&#x2078;" horiz-adv-x="384" 
d="M58 493q0 52 42 88q-42 34 -42 87q0 56 37.5 89t96.5 33t96.5 -33t37.5 -89q0 -53 -42 -87q42 -36 42 -88q0 -57 -37 -90t-97 -33t-97 33t-37 90zM192 616q26 0 43.5 14t17.5 38q0 23 -17 37t-44 14q-28 0 -45 -14t-17 -37q0 -24 18 -38t44 -14zM192 545q-26 0 -44 -14
t-18 -38t17 -38t45 -14q27 0 44 14t17 38t-17.5 38t-43.5 14z" />
    <glyph glyph-name="ninesuperior" unicode="&#x2079;" horiz-adv-x="405" 
d="M302 427q-43 -57 -121 -57q-58 0 -112 30l30 65q45 -24 82 -24t60 24q20 22 22 58q-31 -15 -65 -15q-65 0 -105.5 38.5t-40.5 101.5q0 61 42 101.5t104 40.5q74 0 117 -59q29 -41 29 -125q0 -122 -42 -179zM271 648q0 33 -21 52t-52 19q-33 0 -53.5 -19.5t-20.5 -51.5
t20 -50.5t54 -18.5q32 0 52.5 19t20.5 50z" />
    <glyph glyph-name="plussuperior" unicode="&#x207a;" horiz-adv-x="411" 
d="M46 522v71h123v119h73v-119h123v-71h-123v-119h-73v119h-123z" />
    <glyph glyph-name="minussuperior" unicode="&#x207b;" horiz-adv-x="376" 
d="M40 524v71h286v-71h-286z" />
    <glyph glyph-name="equalsuperior" unicode="&#x207c;" horiz-adv-x="394" 
d="M348 639v-71h-302v71h302zM348 517v-71h-302v71h302z" />
    <glyph glyph-name="parenleftsuperior" unicode="&#x207d;" horiz-adv-x="243" 
d="M40 556q0 164 119 280l47 -41q-99 -105 -99 -239q0 -133 99 -240l-47 -42q-119 117 -119 282z" />
    <glyph glyph-name="parenrightsuperior" unicode="&#x207e;" horiz-adv-x="243" 
d="M203 556q0 -164 -120 -282l-46 42q98 107 98 240t-98 239l46 41q120 -117 120 -280z" />
    <glyph glyph-name="nsuperior" unicode="&#x207f;" horiz-adv-x="397" 
d="M206 532q-36 0 -57 -22t-21 -80v-140h-68v300h68v-29q38 36 90 36q61 0 90 -36t29 -96v-175h-69v174q0 68 -62 68z" />
    <glyph glyph-name="zeroinferior" unicode="&#x2080;" horiz-adv-x="506" 
d="M253 355q85 0 143 -59.5t58 -151.5q0 -91 -58 -150t-143 -59t-143 59t-58 150q0 92 58 151.5t143 59.5zM253 6q56 0 92.5 38t36.5 100t-36.5 100.5t-92.5 38.5t-92.5 -38.5t-36.5 -100.5t36.5 -100t92.5 -38zM306 144q0 -21 -15.5 -35.5t-37.5 -14.5t-37 14.5t-15 35.5
t15 36t37 15t37.5 -15t15.5 -36z" />
    <glyph glyph-name="oneinferior" unicode="&#x2081;" horiz-adv-x="328" 
d="M186 355h65v-420h-72v313l-88 -84l-51 51z" />
    <glyph glyph-name="twoinferior" unicode="&#x2082;" horiz-adv-x="416" 
d="M114 218l-56 48q21 39 58.5 64t87.5 25q59 0 97 -35.5t38 -91.5q0 -55 -44 -102l-114 -120h153v-71h-265v59l175 182q22 24 22 51q0 26 -18 41.5t-43 15.5q-61 0 -91 -66z" />
    <glyph glyph-name="threeinferior" unicode="&#x2083;" horiz-adv-x="391" 
d="M253 232q0 24 -15.5 38t-39.5 14q-57 0 -79 -64l-58 48q15 37 50.5 62t83.5 25q57 0 94 -34t37 -85q0 -50 -41 -89q41 -33 41 -91q0 -55 -35.5 -88t-92.5 -33q-50 0 -86.5 25t-53.5 67l64 48q21 -69 74 -69q25 0 41 14t16 38q0 25 -17 39t-45 14h-24v71h24q28 0 45 13
t17 37z" />
    <glyph glyph-name="fourinferior" unicode="&#x2084;" horiz-adv-x="462" 
d="M336 87h86v-71h-86v-81h-72v81h-230v61l243 278h59v-268zM264 87v142l-126 -142h126z" />
    <glyph glyph-name="fiveinferior" unicode="&#x2085;" horiz-adv-x="404" 
d="M85 126v229h254v-71h-182v-65q27 3 35 3q66 0 106.5 -40.5t40.5 -104.5q0 -67 -45 -104.5t-110 -37.5q-70 0 -126 46l37 63q47 -38 93 -38q33 0 55.5 19t22.5 54q0 33 -21 52t-60 19q-49 0 -100 -24z" />
    <glyph glyph-name="sixinferior" unicode="&#x2086;" horiz-adv-x="402" 
d="M205 217q64 0 104.5 -38.5t40.5 -101.5q0 -62 -41 -102t-104 -40q-75 0 -118 59q-29 40 -29 125q0 115 45 176q44 60 121 60q57 0 106 -38l-39 -58q-36 25 -67 25q-36 0 -59 -26q-20 -21 -25 -56q33 15 65 15zM132 77q0 -33 21 -52t52 -19q33 0 53 19.5t20 51.5
t-19.5 50.5t-53.5 18.5q-32 0 -52.5 -19t-20.5 -50z" />
    <glyph glyph-name="seveninferior" unicode="&#x2087;" horiz-adv-x="373" 
d="M333 355v-60l-191 -360h-82l186 349h-206v71h293z" />
    <glyph glyph-name="eightinferior" unicode="&#x2088;" horiz-adv-x="384" 
d="M58 58q0 52 42 88q-42 34 -42 87q0 56 37.5 89t96.5 33t96.5 -33t37.5 -89q0 -53 -42 -87q42 -36 42 -88q0 -57 -37 -90t-97 -33t-97 33t-37 90zM192 181q26 0 43.5 14t17.5 38q0 23 -17 37t-44 14q-28 0 -45 -14t-17 -37q0 -24 18 -38t44 -14zM192 110q-26 0 -44 -14
t-18 -38t17 -38t45 -14q27 0 44 14t17 38t-17.5 38t-43.5 14z" />
    <glyph glyph-name="nineinferior" unicode="&#x2089;" horiz-adv-x="405" 
d="M302 -8q-43 -57 -121 -57q-58 0 -112 30l30 65q45 -24 82 -24t60 24q20 22 22 58q-31 -15 -65 -15q-65 0 -105.5 38.5t-40.5 101.5q0 61 42 101.5t104 40.5q74 0 117 -59q29 -41 29 -125q0 -122 -42 -179zM271 213q0 33 -21 52t-52 19q-33 0 -53.5 -19.5t-20.5 -51.5
t20 -50.5t54 -18.5q32 0 52.5 19t20.5 50z" />
    <glyph glyph-name="parenleftinferior" unicode="&#x208d;" horiz-adv-x="243" 
d="M40 121q0 164 119 280l47 -41q-99 -105 -99 -239q0 -133 99 -240l-47 -42q-119 117 -119 282z" />
    <glyph glyph-name="parenrightinferior" unicode="&#x208e;" horiz-adv-x="243" 
d="M203 121q0 -164 -120 -282l-46 42q98 107 98 240t-98 239l46 41q120 -117 120 -280z" />
    <glyph glyph-name="Euro" unicode="&#x20ac;" horiz-adv-x="714" 
d="M684 621l-38 -85q-77 75 -183 75q-78 0 -135 -42.5t-81 -116.5h362l-32 -70h-344q-1 -11 -1 -32q0 -26 2 -38h309l-32 -70h-261q25 -70 80.5 -111t132.5 -41q51 0 113 31l15 -92q-75 -29 -128 -29q-110 0 -193.5 67t-113.5 175h-106l32 70h62q-2 24 -2 38q0 21 1 32h-83
l32 70h63q29 111 113 180t195 69q120 0 221 -80z" />
    <glyph glyph-name="afii61289" unicode="&#x2113;" horiz-adv-x="481" 
d="M105 160v19q-34 -26 -51 -38l-38 55q48 38 89 76v275q0 116 39.5 168.5t102.5 52.5q59 0 91.5 -41.5t32.5 -110.5q0 -90 -53 -187.5t-138 -183.5v-62q0 -55 21 -87t62 -32q34 0 55.5 22t44.5 67l58 -36q-32 -63 -70 -96t-92 -33q-67 0 -110.5 46t-43.5 126zM180 553v-200
q115 142 115 263q0 82 -49 82q-66 0 -66 -145z" />
    <glyph glyph-name="afii61352" unicode="&#x2116;" horiz-adv-x="1411" 
d="M707 0h-86l-451 547v-547h-90v700h83l454 -551v551h90v-700zM1038 641q97 0 164.5 -67.5t67.5 -164.5q0 -96 -67.5 -163.5t-164.5 -67.5q-96 0 -164 67.5t-68 163.5q0 97 68 164.5t164 67.5zM1038 258q63 0 104.5 43.5t41.5 107.5t-41.5 108t-104.5 44t-104.5 -44
t-41.5 -108t41.5 -107.5t104.5 -43.5zM832 0v80h413v-80h-413z" />
    <glyph glyph-name="trademark" unicode="&#x2122;" horiz-adv-x="961" 
d="M388 700v-70h-144v-319h-70v319h-144v70h358zM693 311h-54l-138 243v-243h-70v389h67l169 -295l166 295h68v-389h-70v243z" />
    <glyph glyph-name="uni2126" unicode="&#x2126;" horiz-adv-x="740" 
d="M370 622q-110 0 -182.5 -73t-72.5 -185q0 -173 205 -284v-80h-286v80h130q-144 110 -144 284q0 153 99.5 250.5t250.5 97.5t250.5 -97.5t99.5 -250.5q0 -173 -145 -284h131v-80h-286v80q205 111 205 284q0 112 -72.5 185t-182.5 73z" />
    <glyph glyph-name="estimated" unicode="&#x212e;" horiz-adv-x="768" 
d="M738 294h-574v-140q0 -56 52 -92q71 -45 172 -45q67 0 127 24.5t101 68.5h49q-48 -57 -121.5 -90t-157.5 -33q-146 0 -248.5 92.5t-102.5 223.5t102.5 223.5t248.5 92.5t249 -92.5t103 -223.5v-9zM609 322v142q0 45 -44 76q-70 50 -177 50q-99 0 -172 -46
q-52 -35 -52 -74v-148h445z" />
    <glyph glyph-name="arrowleft" unicode="&#x2190;" horiz-adv-x="938" 
d="M427 70l-327 283l327 283l54 -59l-207 -182h564v-84h-564l207 -182z" />
    <glyph glyph-name="arrowup" unicode="&#x2191;" horiz-adv-x="766" 
d="M383 718l283 -327l-59 -54l-182 207v-544h-84v544l-182 -207l-59 54z" />
    <glyph glyph-name="arrowright" unicode="&#x2192;" horiz-adv-x="938" 
d="M838 353l-327 -283l-54 59l207 182h-564v84h564l-207 182l54 59z" />
    <glyph glyph-name="arrowdown" unicode="&#x2193;" horiz-adv-x="766" 
d="M666 306l-283 -327l-283 327l59 54l182 -207v544h84v-544l182 207z" />
    <glyph glyph-name="uni2196" unicode="&#x2196;" horiz-adv-x="752" 
d="M100 615l431 -31l-3 -80l-275 18l399 -399l-60 -60l-399 399l18 -275l-80 -3z" />
    <glyph glyph-name="uni2197" unicode="&#x2197;" horiz-adv-x="752" 
d="M221 584l431 31l-31 -431l-80 3l18 275l-399 -399l-60 60l399 399l-275 -18z" />
    <glyph glyph-name="uni2198" unicode="&#x2198;" horiz-adv-x="752" 
d="M652 74l-431 31l3 80l275 -18l-399 399l60 60l399 -399l-18 275l80 3z" />
    <glyph glyph-name="uni2199" unicode="&#x2199;" horiz-adv-x="752" 
d="M531 105l-431 -31l31 431l80 -3l-18 -275l399 399l60 -60l-399 -399l275 18z" />
    <glyph glyph-name="partialdiff" unicode="&#x2202;" 
d="M167 594l-41 76q82 60 188 60q121 0 198.5 -92.5t77.5 -270.5q0 -164 -70 -271.5t-194 -107.5q-103 0 -159.5 66t-56.5 163q0 102 67.5 169.5t159.5 67.5q93 0 160 -63v9q0 109 -53.5 177t-133.5 68q-66 0 -143 -51zM329 73q66 0 109 59.5t53 150.5q-19 31 -60.5 58.5
t-84.5 27.5q-60 0 -101.5 -45.5t-41.5 -109.5q0 -62 35.5 -101.5t90.5 -39.5z" />
    <glyph glyph-name="uni2206" unicode="&#x2206;" 
d="M684 0h-668l309 745h50zM143 65h416l-208 517z" />
    <glyph glyph-name="product" unicode="&#x220f;" 
d="M671 628h-111v-717h-90v717h-241v-717h-90v717h-111v85h643v-85z" />
    <glyph glyph-name="summation" unicode="&#x2211;" 
d="M593 -100h-487v60l246 350l-234 333v57h461v-88h-324l209 -302l-223 -322h352v-88z" />
    <glyph glyph-name="minus" unicode="&#x2212;" 
d="M121 273v90h458v-90h-458z" />
    <glyph glyph-name="radical" unicode="&#x221a;" 
d="M445 -56h-72l-198 479l-76 -33l-28 64l152 64l176 -439l157 841l73 -9z" />
    <glyph glyph-name="infinity" unicode="&#x221e;" horiz-adv-x="740" 
d="M191 204q35 0 64.5 24t68.5 71q-38 47 -68 71.5t-65 24.5q-38 0 -65 -27.5t-27 -68.5t27.5 -68t64.5 -27zM370 242q-43 -50 -85 -78t-94 -28q-69 0 -118.5 47t-49.5 116q0 70 49.5 117t118.5 47q89 0 179 -107q90 107 179 107q69 0 118.5 -47t49.5 -117q0 -69 -49.5 -116
t-118.5 -47q-52 0 -94 28t-85 78zM549 204q37 0 64.5 27t27.5 68t-27 68.5t-65 27.5q-35 0 -65 -24.5t-68 -71.5q39 -47 68.5 -71t64.5 -24z" />
    <glyph glyph-name="integral" unicode="&#x222b;" 
d="M305 -70v803q0 60 30 92t76 32q34 0 79 -10v-84q-34 6 -56 6q-39 0 -39 -45v-803q0 -60 -30 -92t-76 -32q-34 0 -79 10v84q34 -6 56 -6q39 0 39 45z" />
    <glyph glyph-name="approxequal" unicode="&#x2248;" 
d="M461 313q-51 0 -122.5 39.5t-99.5 39.5q-48 0 -111 -59l-47 74q81 79 158 79q49 0 120.5 -39t101.5 -39q48 0 110 58l48 -69q-86 -84 -158 -84zM461 100q-51 0 -122.5 39.5t-99.5 39.5q-48 0 -111 -59l-47 74q81 79 158 79q49 0 120.5 -39t101.5 -39q48 0 110 58l48 -69
q-86 -84 -158 -84z" />
    <glyph glyph-name="notequal" unicode="&#x2260;" 
d="M185 61l41 77h-119v90h167l66 125h-233v90h281l59 110l67 -35l-40 -75h119v-90h-167l-67 -125h234v-90h-282l-59 -110z" />
    <glyph glyph-name="lessequal" unicode="&#x2264;" 
d="M572 316l-24 -83l-434 138v70l434 138l24 -83l-299 -90zM121 94v88h458v-88h-458z" />
    <glyph glyph-name="greaterequal" unicode="&#x2265;" 
d="M147 233l-24 83l299 90l-299 90l24 83l434 -138v-70zM574 182v-88h-458v88h458z" />
    <glyph glyph-name="lozenge" unicode="&#x25ca;" 
d="M592 331l-207 -421h-70l-207 421l207 422h70zM507 331l-157 333l-157 -333l157 -332z" />
    <glyph glyph-name="apple" unicode="&#xf8ff;" horiz-adv-x="885" 
d="M723 448q112 0 112 -79v-240q-52 32 -112 32q-19 0 -58 -10t-60 -10q-48 0 -48 46v86q-23 5 -49 5q-23 0 -70.5 -9t-73.5 -9q-22 0 -35 12.5t-13 33.5v68h-14q-62 0 -176 -44v-330h-39v646q-17 11 -17 33q0 16 10.5 26t26.5 10q15 0 26 -10.5t11 -25.5q0 -23 -18 -34v-24
q103 42 176 42q42 0 73 -21.5t31 -61.5v-25q55 12 102 12q138 0 138 -83v-48q48 12 77 12zM302 402q44 0 75 -14v192q0 28 -22.5 41.5t-52.5 13.5q-65 0 -176 -45v-230q110 42 176 42zM508 305q65 0 110 -25v197q0 11 -2.5 19t-11.5 19.5t-34 17.5t-63 6q-39 0 -101 -12
v-171q0 -18 -32 -29t-32 -23q0 -16 22 -16q23 0 70.5 8.5t73.5 8.5zM808 174v194q0 29 -21.5 40t-63.5 11q-29 0 -77 -12v-167q0 -19 -31 -31.5t-31 -24.5q0 -16 21 -16q19 0 58.5 10.5t60.5 10.5q42 0 84 -15zM499 497q36 0 58.5 -22.5t22.5 -57.5t-22.5 -58t-58.5 -23
q-34 0 -56.5 23t-22.5 58t22.5 57.5t56.5 22.5zM499 365q23 0 38 15t15 37t-15 36.5t-38 14.5q-22 0 -36.5 -14.5t-14.5 -36.5t14.5 -37t36.5 -15zM252 519l45 64h34l-64 -95v-68h-30v68l-65 95h34zM725 376v-100h-29v100h29zM618 241q0 15 -34 26v-47q6 4 15 7.5t14 6.5
t5 7zM344 371v-32q5 3 13.5 5.5t13.5 4.5t5 6q0 11 -32 16zM711 253q19 0 19 -19q0 -20 -19 -20q-20 0 -20 20q0 19 20 19z" />
    <glyph glyph-name="ffi" unicode="&#xfb03;" horiz-adv-x="928" 
d="M15 425v75h92v28q0 181 161 181q32 0 77 -7v-78q-35 5 -66 5q-45 0 -65.5 -22t-20.5 -79v-28h233v28q0 181 161 181q31 0 77 -7v-78q-35 5 -66 5q-45 0 -65.5 -22t-20.5 -79v-28h331v-500h-86v425h-245v-425h-86v425h-233v-425h-86v425h-92zM732 645q0 29 20 48.5
t48 19.5t48 -19.5t20 -48.5t-20 -48.5t-48 -19.5t-48 19.5t-20 48.5z" />
    <glyph glyph-name="ffl" unicode="&#xfb04;" horiz-adv-x="893" 
d="M193 425v-425h-86v425h-92v75h92v28q0 181 161 181q32 0 77 -7v-78q-35 5 -66 5q-45 0 -65.5 -22t-20.5 -79v-28h233v28q0 181 161 181q31 0 77 -7v-78q-35 5 -66 5q-45 0 -65.5 -22t-20.5 -79v-28h145v-75h-145v-425h-86v425h-233zM823 0h-88v700h88v-700z" />
    <glyph glyph-name="commaaccent" horiz-adv-x="160" 
d="M12 -274l49 86q-23 7 -37 26.5t-14 40.5q0 28 20 49.5t49 21.5q30 0 50.5 -21.5t20.5 -49.5q0 -14 -11 -34l-81 -145z" />
    <glyph glyph-name="commaturn" horiz-adv-x="171" 
d="M154 756l-49 -86q23 -7 37 -26.5t14 -40.5q0 -28 -20 -49.5t-49 -21.5q-30 0 -50.5 21.5t-20.5 49.5q0 14 11 34l81 145z" />
    <glyph glyph-name="asuperior" horiz-adv-x="377" 
d="M253 491v12q0 31 -59 31q-60 0 -75 -46l-62 31q29 78 133 78q132 0 132 -114v-193h-69v31q-35 -37 -89 -37q-50 0 -82 28t-32 70q0 41 28.5 64t70.5 26l90 7q14 2 14 12zM253 423l-93 -10q-19 -2 -29.5 -11t-10.5 -20q0 -33 53 -33q32 0 56 19t24 45v10z" />
    <glyph glyph-name="bsuperior" horiz-adv-x="411" 
d="M219 597q70 0 113.5 -43t43.5 -114t-44.5 -114t-114.5 -43q-55 0 -89 34v-27h-68v420h68v-147q36 34 91 34zM214 348q41 0 65.5 25.5t24.5 66.5t-24.5 66.5t-65.5 25.5q-42 0 -65.5 -25t-23.5 -67t23.5 -67t65.5 -25z" />
    <glyph glyph-name="csuperior" horiz-adv-x="347" 
d="M35 440q0 70 46.5 113.5t116.5 43.5t119 -49l-43 -52q-28 36 -78 36q-38 0 -63.5 -24.5t-25.5 -67.5t25.5 -67.5t63.5 -24.5q47 0 81 36l40 -53q-48 -48 -119 -48q-70 0 -116.5 43.5t-46.5 113.5z" />
    <glyph glyph-name="dsuperior" horiz-adv-x="410" 
d="M191 597q54 0 91 -31v144h68v-420h-68v31q-36 -38 -91 -38q-70 0 -113 43t-43 114t43 114t113 43zM196 348q42 0 66 25.5t24 67.5t-24 66.5t-66 24.5q-41 0 -65 -25.5t-24 -66.5t24 -66.5t65 -25.5z" />
    <glyph glyph-name="esuperior" horiz-adv-x="373" 
d="M290 392l36 -52q-55 -57 -134 -57q-68 0 -112.5 44.5t-44.5 113.5q0 65 43 110.5t114 45.5q67 0 109 -44t42 -112v-25h-238q4 -32 28.5 -50t58.5 -18q59 0 98 44zM110 474h157q-13 58 -75 58q-66 0 -82 -58z" />
    <glyph glyph-name="fsuperior" horiz-adv-x="263" 
d="M25 528v62h55v14q0 111 103 111q29 0 55 -5v-63q-45 5 -49 5q-22 0 -32 -10.5t-10 -37.5v-14h86v-62h-86v-238h-67v238h-55z" />
    <glyph glyph-name="gsuperior" horiz-adv-x="416" 
d="M290 315v6q-33 -38 -93 -38q-70 0 -113.5 43t-43.5 114t43.5 114.5t113.5 43.5q56 0 92 -34v26h67v-275q0 -63 -34 -108t-116 -45q-101 0 -149 75l52 39q31 -52 100 -52q44 0 62.5 27t18.5 64zM203 533q-41 0 -66 -26t-25 -67t25 -66.5t66 -25.5t65 25.5t24 67.5
t-23.5 67t-65.5 25z" />
    <glyph glyph-name="isuperior" horiz-adv-x="199" 
d="M65 290v300h69v-300h-69zM50 669q0 20 14.5 34t35.5 14t35 -14t14 -34t-14 -34t-35 -14t-35.5 14t-14.5 34z" />
    <glyph glyph-name="ksuperior" horiz-adv-x="367" 
d="M257 290l-93 121l-36 -31v-90h-68v420h68v-243l126 123h93l-136 -135l133 -165h-87z" />
    <glyph glyph-name="lsuperior" horiz-adv-x="189" 
d="M129 290h-69v420h69v-420z" />
    <glyph glyph-name="msuperior" horiz-adv-x="606" 
d="M476 290v177q0 65 -62 65q-37 0 -56.5 -21.5t-19.5 -75.5v-145h-70v177q0 65 -62 65q-39 0 -58.5 -23t-19.5 -79v-140h-68v300h68v-28q35 35 87 35q65 0 98 -47q44 47 107 47q126 0 126 -136v-171h-70z" />
    <glyph glyph-name="osuperior" horiz-adv-x="399" 
d="M199 597q69 0 117 -46t48 -111t-48 -111t-117 -46q-68 0 -116 46t-48 111t48 111t116 46zM199 348q41 0 67 26.5t26 65.5t-26 65.5t-67 26.5q-40 0 -66 -26.5t-26 -65.5t26 -65.5t66 -26.5z" />
    <glyph glyph-name="psuperior" horiz-adv-x="411" 
d="M128 170h-68v420h68v-25q37 32 91 32q70 0 113.5 -43t43.5 -114t-43.5 -114t-113.5 -43q-52 0 -91 34v-147zM214 532q-42 0 -65.5 -25t-23.5 -67t23.5 -67t65.5 -25q41 0 65.5 25.5t24.5 66.5t-24.5 66.5t-65.5 25.5z" />
    <glyph glyph-name="qsuperior" horiz-adv-x="410" 
d="M350 170h-68v150q-35 -37 -91 -37q-70 0 -113 43t-43 114t43 114t113 43q57 0 91 -32v25h68v-420zM196 532q-41 0 -65 -25.5t-24 -66.5t24 -66.5t65 -25.5q42 0 66 25t24 67t-24 67t-66 25z" />
    <glyph glyph-name="rsuperior" horiz-adv-x="276" 
d="M246 593v-75q-15 7 -39 7q-78 0 -78 -97v-138h-69v300h67v-31q31 39 80 39q19 0 39 -5z" />
    <glyph glyph-name="ssuperior" horiz-adv-x="338" 
d="M40 353l54 39q29 -44 80 -44q25 0 40 8t15 20q0 17 -27.5 26.5t-60 14t-60 27t-27.5 62.5q0 38 33 64.5t89 26.5q80 0 122 -63l-51 -39q-28 37 -71 37q-24 0 -38.5 -8.5t-14.5 -20.5q0 -13 18 -20.5t43.5 -12t51 -12.5t43.5 -28.5t18 -53.5q0 -41 -34 -67t-89 -26
q-45 0 -81 20t-53 50z" />
    <glyph glyph-name="tsuperior" horiz-adv-x="271" 
d="M83 378v150h-58v62h58v79h68v-79h82v-62h-82v-153q0 -24 25 -24t60 7v-61q-42 -10 -71 -10q-82 0 -82 91z" />
    <glyph glyph-name="usuperior" horiz-adv-x="392" 
d="M188 348q38 0 57.5 26t19.5 70v146h67v-300h-68v32q-37 -39 -88 -39q-60 0 -88 36t-28 96v175h69v-175q0 -67 59 -67z" />
    <glyph glyph-name="vsuperior" horiz-adv-x="369" 
d="M274 590h75l-138 -300h-52l-139 300h75l90 -202z" />
    <glyph glyph-name="zsuperior" horiz-adv-x="319" 
d="M278 534l-152 -180h158v-64h-249v56l152 180h-147v64h238v-56z" />
    <glyph glyph-name="plusinferior" horiz-adv-x="411" 
d="M46 87v71h123v119h73v-119h123v-71h-123v-119h-73v119h-123z" />
    <glyph glyph-name="minusinferior" horiz-adv-x="376" 
d="M40 89v71h286v-71h-286z" />
    <glyph glyph-name="equalinferior" horiz-adv-x="394" 
d="M348 204v-71h-302v71h302zM348 82v-71h-302v71h302z" />
    <glyph glyph-name="zero.numerator" horiz-adv-x="506" 
d="M253 700q85 0 143 -59.5t58 -151.5q0 -91 -58 -150t-143 -59t-143 59t-58 150q0 92 58 151.5t143 59.5zM253 351q56 0 92.5 38t36.5 100t-36.5 100.5t-92.5 38.5t-92.5 -38.5t-36.5 -100.5t36.5 -100t92.5 -38zM306 489q0 -21 -15.5 -35.5t-37.5 -14.5t-37 14.5t-15 35.5
t15 36t37 15t37.5 -15t15.5 -36z" />
    <glyph glyph-name="one.numerator" horiz-adv-x="328" 
d="M186 700h65v-420h-72v313l-88 -84l-51 51z" />
    <glyph glyph-name="two.numerator" horiz-adv-x="416" 
d="M114 563l-56 48q21 39 58.5 64t87.5 25q59 0 97 -35.5t38 -91.5q0 -55 -44 -102l-114 -120h153v-71h-265v59l175 182q22 24 22 51q0 26 -18 41.5t-43 15.5q-61 0 -91 -66z" />
    <glyph glyph-name="three.numerator" horiz-adv-x="391" 
d="M253 577q0 24 -15.5 38t-39.5 14q-57 0 -79 -64l-58 48q15 37 50.5 62t83.5 25q57 0 94 -34t37 -85q0 -50 -41 -89q41 -33 41 -91q0 -55 -35.5 -88t-92.5 -33q-50 0 -86.5 25t-53.5 67l64 48q21 -69 74 -69q25 0 41 14t16 38q0 25 -17 39t-45 14h-24v71h24q28 0 45 13
t17 37z" />
    <glyph glyph-name="four.numerator" horiz-adv-x="462" 
d="M336 432h86v-71h-86v-81h-72v81h-230v61l243 278h59v-268zM264 432v142l-126 -142h126z" />
    <glyph glyph-name="five.numerator" horiz-adv-x="404" 
d="M85 471v229h254v-71h-182v-65q27 3 35 3q66 0 106.5 -40.5t40.5 -104.5q0 -67 -45 -104.5t-110 -37.5q-70 0 -126 46l37 63q47 -38 93 -38q33 0 55.5 19t22.5 54q0 33 -21 52t-60 19q-49 0 -100 -24z" />
    <glyph glyph-name="six.numerator" horiz-adv-x="402" 
d="M205 562q64 0 104.5 -38.5t40.5 -101.5q0 -62 -41 -102t-104 -40q-75 0 -118 59q-29 40 -29 125q0 115 45 176q44 60 121 60q57 0 106 -38l-39 -58q-36 25 -67 25q-36 0 -59 -26q-20 -21 -25 -56q33 15 65 15zM132 422q0 -33 21 -52t52 -19q33 0 53 19.5t20 51.5
t-19.5 50.5t-53.5 18.5q-32 0 -52.5 -19t-20.5 -50z" />
    <glyph glyph-name="seven.numerator" horiz-adv-x="373" 
d="M333 700v-60l-191 -360h-82l186 349h-206v71h293z" />
    <glyph glyph-name="eight.numerator" horiz-adv-x="384" 
d="M58 403q0 52 42 88q-42 34 -42 87q0 56 37.5 89t96.5 33t96.5 -33t37.5 -89q0 -53 -42 -87q42 -36 42 -88q0 -57 -37 -90t-97 -33t-97 33t-37 90zM192 526q26 0 43.5 14t17.5 38q0 23 -17 37t-44 14q-28 0 -45 -14t-17 -37q0 -24 18 -38t44 -14zM192 455q-26 0 -44 -14
t-18 -38t17 -38t45 -14q27 0 44 14t17 38t-17.5 38t-43.5 14z" />
    <glyph glyph-name="nine.numerator" horiz-adv-x="405" 
d="M302 337q-43 -57 -121 -57q-58 0 -112 30l30 65q45 -24 82 -24t60 24q20 22 22 58q-31 -15 -65 -15q-65 0 -105.5 38.5t-40.5 101.5q0 61 42 101.5t104 40.5q74 0 117 -59q29 -41 29 -125q0 -122 -42 -179zM271 558q0 33 -21 52t-52 19q-33 0 -53.5 -19.5t-20.5 -51.5
t20 -50.5t54 -18.5q32 0 52.5 19t20.5 50z" />
    <glyph glyph-name="plus.numerator" horiz-adv-x="411" 
d="M46 432v71h123v119h73v-119h123v-71h-123v-119h-73v119h-123z" />
    <glyph glyph-name="minus.numerator" horiz-adv-x="376" 
d="M40 434v71h286v-71h-286z" />
    <glyph glyph-name="equal.numerator" horiz-adv-x="394" 
d="M348 549v-71h-302v71h302zM348 427v-71h-302v71h302z" />
    <glyph glyph-name="parenleft.numerator" horiz-adv-x="243" 
d="M40 466q0 164 119 280l47 -41q-99 -105 -99 -239q0 -133 99 -240l-47 -42q-119 117 -119 282z" />
    <glyph glyph-name="parenright.numerator" horiz-adv-x="243" 
d="M203 466q0 -164 -120 -282l-46 42q98 107 98 240t-98 239l46 41q120 -117 120 -280z" />
    <glyph glyph-name="zero.denominator" horiz-adv-x="506" 
d="M253 420q85 0 143 -59.5t58 -151.5q0 -91 -58 -150t-143 -59t-143 59t-58 150q0 92 58 151.5t143 59.5zM253 71q56 0 92.5 38t36.5 100t-36.5 100.5t-92.5 38.5t-92.5 -38.5t-36.5 -100.5t36.5 -100t92.5 -38zM306 209q0 -21 -15.5 -35.5t-37.5 -14.5t-37 14.5t-15 35.5
t15 36t37 15t37.5 -15t15.5 -36z" />
    <glyph glyph-name="one.denominator" horiz-adv-x="328" 
d="M186 420h65v-420h-72v313l-88 -84l-51 51z" />
    <glyph glyph-name="two.denominator" horiz-adv-x="416" 
d="M114 283l-56 48q21 39 58.5 64t87.5 25q59 0 97 -35.5t38 -91.5q0 -55 -44 -102l-114 -120h153v-71h-265v59l175 182q22 24 22 51q0 26 -18 41.5t-43 15.5q-61 0 -91 -66z" />
    <glyph glyph-name="three.denominator" horiz-adv-x="391" 
d="M253 297q0 24 -15.5 38t-39.5 14q-57 0 -79 -64l-58 48q15 37 50.5 62t83.5 25q57 0 94 -34t37 -85q0 -50 -41 -89q41 -33 41 -91q0 -55 -35.5 -88t-92.5 -33q-50 0 -86.5 25t-53.5 67l64 48q21 -69 74 -69q25 0 41 14t16 38q0 25 -17 39t-45 14h-24v71h24q28 0 45 13
t17 37z" />
    <glyph glyph-name="four.denominator" horiz-adv-x="462" 
d="M336 152h86v-71h-86v-81h-72v81h-230v61l243 278h59v-268zM264 152v142l-126 -142h126z" />
    <glyph glyph-name="five.denominator" horiz-adv-x="404" 
d="M85 191v229h254v-71h-182v-65q27 3 35 3q66 0 106.5 -40.5t40.5 -104.5q0 -67 -45 -104.5t-110 -37.5q-70 0 -126 46l37 63q47 -38 93 -38q33 0 55.5 19t22.5 54q0 33 -21 52t-60 19q-49 0 -100 -24z" />
    <glyph glyph-name="six.denominator" horiz-adv-x="402" 
d="M205 282q64 0 104.5 -38.5t40.5 -101.5q0 -62 -41 -102t-104 -40q-75 0 -118 59q-29 40 -29 125q0 115 45 176q44 60 121 60q57 0 106 -38l-39 -58q-36 25 -67 25q-36 0 -59 -26q-20 -21 -25 -56q33 15 65 15zM132 142q0 -33 21 -52t52 -19q33 0 53 19.5t20 51.5
t-19.5 50.5t-53.5 18.5q-32 0 -52.5 -19t-20.5 -50z" />
    <glyph glyph-name="seven.denominator" horiz-adv-x="373" 
d="M333 420v-60l-191 -360h-82l186 349h-206v71h293z" />
    <glyph glyph-name="eight.denominator" horiz-adv-x="384" 
d="M58 123q0 52 42 88q-42 34 -42 87q0 56 37.5 89t96.5 33t96.5 -33t37.5 -89q0 -53 -42 -87q42 -36 42 -88q0 -57 -37 -90t-97 -33t-97 33t-37 90zM192 246q26 0 43.5 14t17.5 38q0 23 -17 37t-44 14q-28 0 -45 -14t-17 -37q0 -24 18 -38t44 -14zM192 175q-26 0 -44 -14
t-18 -38t17 -38t45 -14q27 0 44 14t17 38t-17.5 38t-43.5 14z" />
    <glyph glyph-name="nine.denominator" horiz-adv-x="405" 
d="M302 57q-43 -57 -121 -57q-58 0 -112 30l30 65q45 -24 82 -24t60 24q20 22 22 58q-31 -15 -65 -15q-65 0 -105.5 38.5t-40.5 101.5q0 61 42 101.5t104 40.5q74 0 117 -59q29 -41 29 -125q0 -122 -42 -179zM271 278q0 33 -21 52t-52 19q-33 0 -53.5 -19.5t-20.5 -51.5
t20 -50.5t54 -18.5q32 0 52.5 19t20.5 50z" />
    <glyph glyph-name="plus.denominator" horiz-adv-x="411" 
d="M46 152v71h123v119h73v-119h123v-71h-123v-119h-73v119h-123z" />
    <glyph glyph-name="minus.denominator" horiz-adv-x="376" 
d="M40 154v71h286v-71h-286z" />
    <glyph glyph-name="equal.denominator" horiz-adv-x="394" 
d="M348 269v-71h-302v71h302zM348 147v-71h-302v71h302z" />
    <glyph glyph-name="parenleft.denominator" horiz-adv-x="243" 
d="M40 186q0 164 119 280l47 -41q-99 -105 -99 -239q0 -133 99 -240l-47 -42q-119 117 -119 282z" />
    <glyph glyph-name="parenright.denominator" horiz-adv-x="243" 
d="M203 186q0 -164 -120 -282l-46 42q98 107 98 240t-98 239l46 41q120 -117 120 -280z" />
    <glyph glyph-name="at.case" horiz-adv-x="949" 
d="M575 339l-127 -14q-25 -3 -38.5 -18.5t-13.5 -35.5q0 -24 17.5 -40t51.5 -16q48 0 79 30.5t31 69.5v24zM701 143q-83 0 -106 69q-47 -71 -137 -71q-66 0 -105.5 36.5t-39.5 93.5t37.5 90.5t89.5 37.5l118 9q17 1 17 18v14q0 19 -21.5 36t-56.5 17q-39 0 -68 -18.5
t-35 -54.5l-71 34q29 113 168 113q83 0 123.5 -42t40.5 -115v-131q0 -31 13.5 -47.5t37.5 -16.5q89 0 89 188q0 124 -84.5 201.5t-221.5 77.5q-140 0 -232.5 -93t-92.5 -236q0 -144 89 -238t228 -94q126 0 228 46l16 -78q-115 -48 -244 -48q-174 0 -287.5 117t-113.5 295
q0 177 117 293t292 116q173 0 281.5 -98t108.5 -259q0 -123 -45 -192.5t-133 -69.5z" />
    <glyph glyph-name="bar.case" horiz-adv-x="275" 
d="M100 -84v895h75v-895h-75z" />
    <glyph glyph-name="plus.case" 
d="M96 323v90h209v209h90v-209h209v-90h-209v-209h-90v209h-209z" />
    <glyph glyph-name="minus.case" 
d="M121 323v90h458v-90h-458z" />
    <glyph glyph-name="plusminus.case" 
d="M113 165v88h473v-88h-473zM113 433v88h194v139h86v-139h193v-88h-193v-139h-86v139h-194z" />
    <glyph glyph-name="multiply.case" 
d="M113 544l60 60l176 -176l177 177l60 -61l-176 -177l176 -176l-60 -61l-177 177l-176 -176l-60 60l176 176z" />
    <glyph glyph-name="divide.case" 
d="M76 319v90h548v-90h-548zM262 180q0 33 22.5 56t55.5 23t56 -23t23 -56t-23 -55.5t-56 -22.5t-55.5 22.5t-22.5 55.5zM262 547q0 33 22.5 56t55.5 23t56 -23t23 -56t-23 -55.5t-56 -22.5t-55.5 22.5t-22.5 55.5z" />
    <glyph glyph-name="equal.case" 
d="M593 493v-90h-486v90h486zM593 278v-90h-486v90h486z" />
    <glyph glyph-name="notequal.case" 
d="M185 111l41 77h-119v90h167l66 125h-233v90h281l59 110l67 -35l-40 -75h119v-90h-167l-67 -125h234v-90h-282l-59 -110z" />
    <glyph glyph-name="logicalnot.case" 
d="M121 354v90h458v-254h-91v164h-367z" />
    <glyph glyph-name="parenleft.case" horiz-adv-x="322" 
d="M40 363q0 137 49.5 260.5t140.5 216.5l57 -52q-82 -92 -122.5 -193.5t-40.5 -231.5q0 -129 40.5 -231t122.5 -194l-57 -52q-91 93 -140.5 216.5t-49.5 260.5z" />
    <glyph glyph-name="parenright.case" horiz-adv-x="322" 
d="M282 363q0 -137 -49.5 -260.5t-140.5 -216.5l-57 52q82 92 122.5 194t40.5 231q0 130 -40.5 231.5t-122.5 193.5l57 52q91 -93 140.5 -216.5t49.5 -260.5z" />
    <glyph glyph-name="hyphen.case" horiz-adv-x="628" 
d="M80 314v90h468v-90h-468z" />
    <glyph glyph-name="bracketleft.case" horiz-adv-x="340" 
d="M110 -84v895h200v-70h-125v-755h125v-70h-200z" />
    <glyph glyph-name="bracketright.case" horiz-adv-x="340" 
d="M230 811v-895h-200v70h125v755h-125v70h200z" />
    <glyph glyph-name="braceleft.case" horiz-adv-x="378" 
d="M243 247v-180q0 -39 23.5 -60t59.5 -21h32v-70h-27q-163 0 -163 156v165q0 41 -29 64.5t-79 26.5v74q50 3 79 27.5t29 65.5v160q0 156 163 156h27v-70h-32q-36 0 -59.5 -21t-23.5 -60v-167q0 -92 -80 -123v-2q43 -17 61.5 -46t18.5 -75z" />
    <glyph glyph-name="braceright.case" horiz-adv-x="378" 
d="M135 67v180q0 46 18.5 75t61.5 46v2q-80 31 -80 123v167q0 39 -23.5 60t-59.5 21h-32v70h27q163 0 163 -156v-160q0 -41 29 -65.5t79 -27.5v-74q-50 -3 -79 -26.5t-29 -64.5v-165q0 -156 -163 -156h-27v70h32q36 0 59.5 21t23.5 60z" />
    <glyph glyph-name="guillemotleft.case" horiz-adv-x="563" 
d="M282 141l-57 -51l-185 210l185 210l57 -52l-143 -158zM483 141l-57 -51l-185 210l185 210l57 -52l-142 -158z" />
    <glyph glyph-name="guillemotright.case" horiz-adv-x="564" 
d="M339 90l-57 51l143 159l-143 158l57 52l185 -210zM137 90l-57 51l143 159l-143 158l57 52l185 -210z" />
    <glyph glyph-name="endash.case" horiz-adv-x="928" 
d="M70 314v90h788v-90h-788z" />
    <glyph glyph-name="emdash.case" horiz-adv-x="1378" 
d="M70 314v90h1238v-90h-1238z" />
    <glyph glyph-name="guilsinglleft.case" horiz-adv-x="372" 
d="M282 141l-57 -51l-185 210l185 210l57 -52l-143 -158z" />
    <glyph glyph-name="guilsinglright.case" horiz-adv-x="372" 
d="M147 90l-57 51l143 159l-143 158l57 52l185 -210z" />
    <glyph glyph-name="brokenbar.case" horiz-adv-x="275" 
d="M100 433v378h75v-378h-75zM100 344h75v-428h-75v428z" />
    <glyph glyph-name="approxequal.case" 
d="M461 363q-51 0 -122.5 39.5t-99.5 39.5q-48 0 -111 -59l-47 74q81 79 158 79q49 0 120.5 -39t101.5 -39q48 0 110 58l48 -69q-86 -84 -158 -84zM461 150q-51 0 -122.5 39.5t-99.5 39.5q-48 0 -111 -59l-47 74q81 79 158 79q49 0 120.5 -39t101.5 -39q48 0 110 58l48 -69
q-86 -84 -158 -84z" />
    <glyph glyph-name="arrowup.case" horiz-adv-x="766" 
d="M383 768l283 -327l-59 -54l-182 207v-544h-84v544l-182 -207l-59 54z" />
    <glyph glyph-name="uni2199.case" horiz-adv-x="752" 
d="M531 55l-431 -31l31 431l80 -3l-18 -275l399 399l60 -60l-399 -399l275 18z" />
    <glyph glyph-name="arrowright.case" horiz-adv-x="938" 
d="M838 403l-327 -283l-54 59l207 182h-564v84h564l-207 182l54 59z" />
    <glyph glyph-name="arrowdown.case" horiz-adv-x="766" 
d="M666 256l-283 -327l-283 327l59 54l182 -207v544h84v-544l182 207z" />
    <glyph glyph-name="arrowleft.case" horiz-adv-x="938" 
d="M427 120l-327 283l327 283l54 -59l-207 -182h564v-84h-564l207 -182z" />
    <glyph glyph-name="uni2196.case" horiz-adv-x="752" 
d="M100 665l431 -31l-3 -80l-275 18l399 -399l-60 -60l-399 399l18 -275l-80 -3z" />
    <glyph glyph-name="uni2197.case" horiz-adv-x="752" 
d="M221 634l431 31l-31 -431l-80 3l18 275l-399 -399l-60 60l399 399l-275 -18z" />
    <glyph glyph-name="uni2198.case" horiz-adv-x="752" 
d="M652 24l-431 31l3 80l275 -18l-399 399l60 60l399 -399l-18 275l80 3z" />
    </font>
</defs>
</svg>
